<?xml version="1.0" standalone="no"?>
<!DOCTYPE svg PUBLIC "-//W3C//DTD SVG 1.1//EN" "http://www.w3.org/Graphics/SVG/1.1/DTD/svg11.dtd">
<svg xmlns="http://www.w3.org/2000/svg" xmlns:xlink="http://www.w3.org/1999/xlink" version="1.1">
<metadata>Wholemy</metadata>
<defs>
<font id="Wholemy100" horiz-adv-x="500" >
<font-face font-family="Wholemy" font-weight="100" font-stretch="normal" units-per-em="1000" ascent="800" descent="-200" x-height="600" cap-height="800" panose-1="2 0 5 3 0 0 0 0 0 0" bbox="0 -200 1000 1000" underline-thickness="0" underline-position="0" unicode-range="U+0020-2265"/>
<missing-glyph />
<glyph horiz-adv-x="1000" glyph-name="Wholemy" unicode="&#x0057;&#x0068;&#x006F;&#x006C;&#x0065;&#x006D;&#x0079;" d="M500,20C532.5488,20.56812 559.4117,-6.2948 560,-40C560,-73.13708 533.1371,-100 500,-100C467.4512,-100.5681 440.5883,-73.7052 440,-40C440,-6.862915 466.8629,20 500,20zM618.88,36.22998C651.4288,36.79816 678.2917,9.935242 678.88,-23.77002C678.88,-56.9071 652.0171,-83.77002 618.88,-83.77002C586.3312,-84.33813 559.4683,-57.47522 558.88,-23.77002C558.88,9.367065 585.7429,36.22998 618.88,36.22998zM381.12,36.22998C413.6688,36.79816 440.5317,9.935242 441.12,-23.77002C441.12,-56.9071 414.2571,-83.77002 381.12,-83.77002C348.5712,-84.33813 321.7083,-57.47522 321.12,-23.77002C321.12,9.367065 347.9829,36.22998 381.12,36.22998zM728.915,84.16998C761.4637,84.73816 788.3267,57.87524 788.915,24.16998C788.915,-8.967102 762.0521,-35.83002 728.915,-35.83002C696.3663,-36.39813 669.5034,-9.535217 668.915,24.16998C668.915,57.30707 695.7779,84.16998 728.915,84.16998zM271.085,84.16998C303.6338,84.73816 330.4967,57.87524 331.085,24.16998C331.085,-8.967102 304.2221,-35.83002 271.085,-35.83002C238.5362,-36.39813 211.6733,-9.535217 211.085,24.16998C211.085,57.30707 237.9479,84.16998 271.085,84.16998zM623.2,196.5C666.5983,197.2575 702.4156,161.4403 703.2,116.5C703.2,72.3172 667.3828,36.5 623.2,36.5C579.8016,35.74249 543.9844,71.55969 543.2,116.5C543.2,160.6828 579.0172,196.5 623.2,196.5zM376.8,196.5C420.1983,197.2575 456.0156,161.4403 456.8,116.5C456.8,72.3172 420.9828,36.5 376.8,36.5C333.4016,35.74249 297.5844,71.55969 296.8,116.5C296.8,160.6828 332.6172,196.5 376.8,196.5zM124.17,231.085C156.7188,231.6531 183.5817,204.7902 184.17,171.085C184.17,137.9479 157.3071,111.085 124.17,111.085C91.62124,110.5168 64.75832,137.3798 64.17,171.085C64.17,204.2221 91.03291,231.085 124.17,231.085zM500,299.5C543.3983,300.2575 579.2156,264.4403 580,219.5C580,175.3172 544.1828,139.5 500,139.5C456.6017,138.7425 420.7844,174.5597 420,219.5C420,263.6828 455.8172,299.5 500,299.5zM76.23,341.12C108.7788,341.6881 135.6417,314.8252 136.23,281.12C136.23,247.9829 109.3671,221.12 76.23,221.12C43.68124,220.5519 16.81833,247.4148 16.23,281.12C16.23,314.2571 43.09291,341.12 76.23,341.12zM783.5,356.8C826.8983,357.5575 862.7156,321.7403 863.5,276.8C863.5,232.6172 827.6828,196.8 783.5,196.8C740.1017,196.0425 704.2844,231.8597 703.5,276.8C703.5,320.9828 739.3172,356.8 783.5,356.8zM216.5,356.8C259.8983,357.5575 295.7156,321.7403 296.5,276.8C296.5,232.6172 260.6828,196.8 216.5,196.8C173.1017,196.0425 137.2844,231.8597 136.5,276.8C136.5,320.9828 172.3172,356.8 216.5,356.8zM940,460C972.5488,460.5681 999.4117,433.7052 1000,400C1000,366.8629 973.1371,340 940,340L935.0684,340.1716L935.6691,340.0874C962.624,334.8655 983.2552,310.6121 983.77,281.12C983.77,247.9829 956.9071,221.12 923.77,221.12C917.6671,221.0135 911.7641,221.8713 906.1967,223.5578L903.0403,224.6915L904.0504,224.2095C922.6022,214.1956 935.4255,194.2573 935.83,171.085C935.83,137.9479 908.9671,111.085 875.83,111.085C843.2813,110.5168 816.4183,137.3798 815.83,171.085C815.83,204.2221 842.6929,231.085 875.83,231.085C881.9329,231.1915 887.8359,230.3337 893.4033,228.6472L896.5597,227.5135L895.5496,227.9955C876.9978,238.0094 864.1745,257.9477 863.77,281.12C863.77,314.2571 890.6329,341.12 923.77,341.12L928.7017,340.9484L928.101,341.0326C901.1461,346.2545 880.5148,370.5079 880,400C880,433.1371 906.8629,460 940,460zM680.5,480C723.8983,480.7575 759.7156,444.9403 760.5,400C760.5,355.8172 724.6828,320 680.5,320C637.1017,319.2425 601.2844,355.0597 600.5,400C600.5,444.1828 636.3172,480 680.5,480zM319.5,480C362.8983,480.7575 398.7156,444.9403 399.5,400C399.5,355.8172 363.6828,320 319.5,320C276.1017,319.2425 240.2844,355.0597 239.5,400C239.5,444.1828 275.3172,480 319.5,480zM500,500C554.2479,500.9469 599.0195,456.1754 600,400C600,344.7715 555.2285,300 500,300C445.7521,299.0531 400.9805,343.8246 400,400C400,455.2285 444.7715,500 500,500zM923.77,578.88C956.3188,579.4481 983.1817,552.5852 983.77,518.88C983.77,485.7429 956.9071,458.88 923.77,458.88C891.2213,458.3119 864.3583,485.1748 863.77,518.88C863.77,552.0171 890.6329,578.88 923.77,578.88zM783.5,603.2C826.8983,603.9575 862.7156,568.1403 863.5,523.2C863.5,479.0172 827.6828,443.2 783.5,443.2C740.1017,442.4425 704.2844,478.2597 703.5,523.2C703.5,567.3828 739.3172,603.2 783.5,603.2zM216.5,603.2C259.8983,603.9575 295.7156,568.1403 296.5,523.2C296.5,479.0172 260.6828,443.2 216.5,443.2C173.1017,442.4425 137.2844,478.2597 136.5,523.2C136.5,567.3828 172.3172,603.2 216.5,603.2zM500,660.5C543.3983,661.2575 579.2156,625.4403 580,580.5C580,536.3173 544.1828,500.5 500,500.5C456.6017,499.7425 420.7844,535.5597 420,580.5C420,624.6827 455.8172,660.5 500,660.5zM875.83,688.915C908.3788,689.4832 935.2417,662.6202 935.83,628.915C935.83,595.778 908.9671,568.915 875.83,568.915C843.2813,568.3469 816.4183,595.2098 815.83,628.915C815.83,662.0521 842.6929,688.915 875.83,688.915zM124.17,688.915C156.7188,689.4832 183.5817,662.6202 184.17,628.915C184.17,595.778 157.3071,568.915 124.17,568.915C118.0671,568.8085 112.1641,569.6663 106.5967,571.3528L103.4404,572.4865L104.4504,572.0045C123.0022,561.9906 135.8255,542.0524 136.23,518.88C136.23,485.7429 109.3671,458.88 76.23,458.88L71.29847,459.0516L71.89905,458.9674C98.85395,453.7455 119.4852,429.4921 120,400C120,366.8629 93.13708,340 60,340C27.45124,339.4319 0.5883274,366.2948 0,400C0,433.1371 26.86292,460 60,460L64.93153,459.8284L64.33096,459.9126C37.37605,465.1345 16.74479,489.3879 16.23,518.88C16.23,552.0171 43.09291,578.88 76.23,578.88C82.33289,578.9866 88.23589,578.1287 93.80328,576.4422L96.95963,575.3085L95.94963,575.7905C77.3978,585.8044 64.57447,605.7427 64.17,628.915C64.17,662.0521 91.03291,688.915 124.17,688.915zM623.2,763.5C666.5983,764.2575 702.4156,728.4403 703.2,683.5C703.2,639.3173 667.3828,603.5 623.2,603.5C579.8016,602.7425 543.9844,638.5597 543.2,683.5C543.2,727.6828 579.0172,763.5 623.2,763.5zM376.8,763.5C420.1983,764.2575 456.0156,728.4403 456.8,683.5C456.8,639.3173 420.9828,603.5 376.8,603.5C333.4016,602.7425 297.5844,638.5597 296.8,683.5C296.8,727.6828 332.6172,763.5 376.8,763.5zM728.915,835.83C761.4637,836.3981 788.3267,809.5352 788.915,775.83C788.915,742.6929 762.0521,715.83 728.915,715.83C696.3663,715.2618 669.5034,742.1248 668.915,775.83C668.915,808.9671 695.7779,835.83 728.915,835.83zM271.085,835.83C303.6338,836.3981 330.4967,809.5352 331.085,775.83C331.085,742.6929 304.2221,715.83 271.085,715.83C238.5362,715.2618 211.6733,742.1248 211.085,775.83C211.085,808.9671 237.9479,835.83 271.085,835.83zM618.88,883.77C651.4288,884.3381 678.2917,857.4752 678.88,823.77C678.88,790.6329 652.0171,763.77 618.88,763.77C586.3312,763.2018 559.4683,790.0648 558.88,823.77C558.88,856.9071 585.7429,883.77 618.88,883.77zM381.12,883.77C413.6688,884.3381 440.5317,857.4752 441.12,823.77C441.12,790.6329 414.2571,763.77 381.12,763.77C348.5712,763.2018 321.7083,790.0648 321.12,823.77C321.12,856.9071 347.9829,883.77 381.12,883.77zM500,900C532.5488,900.5681 559.4117,873.7052 560,840C560,806.8629 533.1371,780 500,780C467.4512,779.4319 440.5883,806.2948 440,840C440,873.1371 466.8629,900 500,900z" />
<glyph horiz-adv-x="1000" glyph-name="0b" unicode="&#x0030;&#x0062;" d="M412.5,566.6666C368.0278,565.8904 332.5837,530.4463 333.3333,487.5L333.3333,312.5C333.3333,268.7775 368.7775,233.3333 412.5,233.3333L587.5,233.3333C631.9722,234.1096 667.4163,269.5537 666.6667,312.5C666.6667,356.2225 631.2225,391.6667 587.5,391.6667L437.5,391.6667C432.8976,391.6667 429.1667,395.3976 429.1667,400C429.0878,404.5207 432.8187,408.2516 437.5,408.3333L587.5,408.3333C631.9722,409.1096 667.4163,444.5537 666.6667,487.5C666.6667,531.2225 631.2225,566.6666 587.5,566.6666L412.5,566.6666zM412.5,583.3334L587.5,583.3334C639.4876,584.2408 682.3936,541.3347 683.3333,487.5C683.3333,451.1125 663.0535,419.4616 633.1799,403.2332L626.7451,400.1335L632.5742,397.3517C662.2056,381.3572 682.6873,349.5114 683.3333,312.5C683.3333,259.5727 640.4273,216.6667 587.5,216.6667L412.5,216.6667C360.5124,215.7592 317.6064,258.6653 316.6667,312.5L316.6667,487.5C316.6667,540.4272 359.5727,583.3334 412.5,583.3334zM325,741.6667C231.3744,740.0324 156.7552,665.4132 158.3333,575L158.3333,225C158.3333,132.9525 232.9525,58.33331 325,58.33331L675,58.33331C768.6256,59.96759 843.2448,134.5868 841.6667,225L841.6667,575C841.6667,667.0475 767.0475,741.6667 675,741.6667L325,741.6667zM325,758.3333L675,758.3333C774.4545,760.0693 856.5356,677.9882 858.3333,575L858.3333,225C858.3333,123.7478 776.2522,41.66669 675,41.66669L325,41.66669C225.5455,39.93066 143.4643,122.0118 141.6667,225L141.6667,575C141.6667,676.2522 223.7478,758.3333 325,758.3333z" />
<glyph horiz-adv-x="1000" glyph-name="0x" unicode="&#x0030;&#x0078;" d="M324.9148,583.3318C327.0475,583.3318 329.2086,582.5187 330.8925,580.8926L500,411.7851L669.1074,580.8926C672.2482,584.1449 677.5246,584.1449 680.8926,580.8926C684.1469,577.6382 684.1469,572.3618 680.8926,569.1074L511.7851,400L680.8926,230.8926C684.1469,227.6382 684.1469,222.3618 680.8926,219.1074C677.7518,215.855 672.4754,215.855 669.1074,219.1074L500,388.2149L330.8925,219.1074C327.7518,215.855 322.4754,215.855 319.1075,219.1074C315.8531,222.3618 315.8531,227.6382 319.1075,230.8926L488.2149,400L319.1075,569.1074C315.8531,572.3618 315.8531,577.6382 319.1075,580.8926C320.6779,582.5187 322.7821,583.3318 324.9148,583.3318zM325,741.6667C231.3744,740.0324 156.7552,665.4132 158.3333,575L158.3333,225C158.3333,132.9525 232.9525,58.33331 325,58.33331L675,58.33331C768.6256,59.96759 843.2448,134.5868 841.6667,225L841.6667,575C841.6667,667.0475 767.0475,741.6667 675,741.6667L325,741.6667zM325,758.3333L675,758.3333C774.4545,760.0693 856.5356,677.9882 858.3333,575L858.3333,225C858.3333,123.7478 776.2522,41.66669 675,41.66669L325,41.66669C225.5455,39.93066 143.4643,122.0118 141.6667,225L141.6667,575C141.6667,676.2522 223.7478,758.3333 325,758.3333z" />
<glyph horiz-adv-x="334" glyph-name="///" unicode="&#x002F;&#x002F;&#x002F;" d="M900,958.3333C918.0826,958.649 933.0065,943.7251 933.3333,925C933.3333,906.5905 918.4095,891.6667 900,891.6667L899.1637,891.7393L616.8651,-96.30591L618.4072,-97.13757C627.2228,-103.0785 633.129,-113.2968 633.3333,-125C633.3333,-143.4095 618.4095,-158.3334 600,-158.3334C581.9174,-158.6489 566.9935,-143.7251 566.6667,-125C566.6667,-106.5905 581.5905,-91.66669 600,-91.66669L600.8362,-91.73926L883.1349,896.3059L881.5928,897.1376C872.7772,903.0785 866.871,913.2968 866.6667,925C866.6667,943.4095 881.5905,958.3333 900,958.3333zM650,958.3333C668.0826,958.649 683.0065,943.7251 683.3333,925C683.3333,906.5905 668.4095,891.6667 650,891.6667L649.1637,891.7393L366.8651,-96.30591L368.4072,-97.13757C377.2228,-103.0785 383.1291,-113.2968 383.3333,-125C383.3333,-143.4095 368.4095,-158.3334 350,-158.3334C331.9174,-158.6489 316.9935,-143.7251 316.6667,-125C316.6667,-106.5905 331.5905,-91.66669 350,-91.66669L350.8363,-91.73926L633.1349,896.3059L631.5928,897.1376C622.7772,903.0785 616.871,913.2968 616.6667,925C616.6667,943.4095 631.5905,958.3333 650,958.3333zM400,958.3333C418.0826,958.649 433.0065,943.7251 433.3333,925C433.3333,906.5905 418.4095,891.6667 400,891.6667L399.1637,891.7393L116.8651,-96.30591L118.4072,-97.13757C127.2228,-103.0785 133.1291,-113.2968 133.3333,-125C133.3333,-143.4095 118.4095,-158.3334 100,-158.3334C81.91736,-158.6489 66.99352,-143.7251 66.66666,-125C66.66666,-106.5905 81.59051,-91.66669 100,-91.66669L100.8363,-91.73926L383.1349,896.3059L381.5928,897.1376C372.7772,903.0785 366.8709,913.2968 366.6667,925C366.6667,943.4095 381.5905,958.3333 400,958.3333z" />
<glyph horiz-adv-x="250" glyph-name="[]" unicode="&#x005B;&#x005D;" d="M2.811873E-09,913.2149L-91.66666,821.5482L-91.66666,-21.54822L4.622198E-07,-113.2148L91.66666,-21.54822L91.66666,821.5482L2.811873E-09,913.2149zM-0.08518219,933.3318C2.047504,933.3318 4.208585,932.5187 5.892557,930.8926L105.8925,830.8926L105.8926,830.8926C106.6466,830.1385 107.2568,829.2407 107.6785,828.2437L107.6902,828.1854L107.7231,828.1359L108.3333,825.0002L108.3333,825L108.3333,-25C108.3728,-27.26038 107.4598,-29.32324 105.9517,-30.8313L105.9182,-30.854L105.8926,-30.89258L5.892557,-130.8926C2.751763,-134.1449 -2.524611,-134.1449 -5.892557,-130.8926L-105.8926,-30.89258L-105.8941,-30.89026L-107.6785,-28.24371L-107.6902,-28.18542L-107.7231,-28.13586L-108.3333,-25.00024L-108.3333,-25L-108.3333,825C-108.3728,827.2603 -107.4598,829.3232 -105.9517,830.8313L-105.9182,830.8539L-105.8926,830.8926L-5.892557,930.8926C-4.322161,932.5187 -2.217868,933.3318 -0.08518219,933.3318z" />
<glyph unicode="&#x005F;" d="M99.91482,483.3318C102.0475,483.3318 104.2086,482.5187 105.8926,480.8925L250,336.7852L394.1075,480.8925C397.2482,484.1449 402.5246,484.1449 405.8925,480.8925C409.1469,477.6382 409.1469,472.3618 405.8925,469.1075L255.8926,319.1074C252.7518,315.855 247.4754,315.855 244.1074,319.1074L94.10744,469.1075C90.85307,472.3618 90.85307,477.6382 94.10744,480.8925C95.67784,482.5187 97.78214,483.3318 99.91482,483.3318z" />
<glyph unicode="&#x005E;" d="M249.9148,483.3318C252.0475,483.3318 254.2086,482.5187 255.8926,480.8925L405.8925,330.8926C409.1469,327.6382 409.1469,322.3618 405.8925,319.1074C402.7518,315.855 397.4754,315.855 394.1075,319.1074L250,463.2149L105.8926,319.1074C102.7518,315.855 97.47539,315.855 94.10744,319.1074C90.85307,322.3618 90.85307,327.6382 94.10744,330.8926L244.1074,480.8925C245.6778,482.5187 247.7821,483.3318 249.9148,483.3318z" />
<glyph unicode="&#x00D7;" d="M143.8488,514.3979C145.9815,514.3979 148.1426,513.5848 149.8265,511.9586L250,411.7851L350.1735,511.9586C353.3142,515.2109 358.5906,515.2109 361.9586,511.9586C365.213,508.7042 365.213,503.4278 361.9586,500.1735L261.7851,400L361.9586,299.8265C365.213,296.5721 365.213,291.2958 361.9586,288.0414C358.8178,284.7891 353.5414,284.7891 350.1735,288.0414L250,388.2149L149.8265,288.0414C146.6857,284.7891 141.4094,284.7891 138.0414,288.0414C134.7871,291.2958 134.7871,296.5721 138.0414,299.8265L238.2149,400L138.0414,500.1735C134.7871,503.4278 134.7871,508.7042 138.0414,511.9586C139.6118,513.5848 141.7161,514.3979 143.8488,514.3979z" />
<glyph unicode="&#x02DC;" d="M388.7522,428.1632C390.8636,428.4637 393.1177,427.9632 395.014,426.5905C398.6944,423.8271 399.4379,418.6034 396.6745,414.9229C362.209,367.3107 294.3004,357.6459 244.9965,393.336C204.5116,423.7329 147.0505,415.555 116.6535,375.0701C114.0024,371.4076 108.7786,370.6641 104.986,373.4095C101.3056,376.1729 100.5621,381.3966 103.3255,385.0771C137.791,432.6893 205.6996,442.3541 255.0035,406.664C295.4884,376.2671 352.9495,384.445 383.3464,424.9299C384.6721,426.7612 386.6408,427.8627 388.7522,428.1632z" />
<glyph unicode="&#x007E;" d="M388.7522,428.1632C390.8636,428.4637 393.1177,427.9632 395.014,426.5905C398.6944,423.8271 399.4379,418.6034 396.6745,414.9229C362.209,367.3107 294.3004,357.6459 244.9965,393.336C204.5116,423.7329 147.0505,415.555 116.6535,375.0701C114.0024,371.4076 108.7786,370.6641 104.986,373.4095C101.3056,376.1729 100.5621,381.3966 103.3255,385.0771C137.791,432.6893 205.6996,442.3541 255.0035,406.664C295.4884,376.2671 352.9495,384.445 383.3464,424.9299C384.6721,426.7612 386.6408,427.8627 388.7522,428.1632z" />
<glyph unicode="&#x00B4;" d="M237.4726,409.3443L228.1283,390.6557L262.5274,390.6557L271.8717,409.3443L237.4726,409.3443zM303.5657,461.3515C304.646,461.2828 305.7307,461.0011 306.7598,460.4866C310.8385,458.5354 312.507,453.5298 310.4866,449.3062L298.839,426.011L338.3883,426.011C342.909,426.0899 346.64,422.3589 346.7217,417.6777C346.7217,413.0753 342.9907,409.3443 338.3883,409.3443L290.5056,409.3443L275.1312,378.5955L274.3921,377.6487L273.5702,376.4298L273.2962,376.2451L273.0949,375.9871L271.9813,375.3585L270.9214,374.6439L270.6008,374.5792L270.3129,374.4166L268.8547,374.2266L267.6777,373.989L219.7949,373.989L204.4205,343.2402C202.3623,339.1237 197.3567,337.4552 193.2402,339.5134C189.1615,341.4645 187.493,346.4702 189.5134,350.6938L201.161,373.989L161.6116,373.989C157.091,373.9101 153.36,377.6411 153.2783,382.3223C153.2783,386.9247 157.0093,390.6557 161.6116,390.6557L209.4944,390.6557L224.8688,421.4044C225.2547,422.1763 225.7442,422.8621 226.3121,423.4534L226.3935,423.5164L226.4298,423.5702L226.6861,423.7431L228.2254,424.9353L228.7639,425.1439L229.0786,425.3561L229.5654,425.4544L230.4569,425.7998L231.8348,425.9126L232.3223,426.011L280.205,426.011L295.5794,456.7598C297.1231,459.8472 300.3247,461.5576 303.5657,461.3515z" />
<glyph unicode="&#x0060;" d="M228.1283,409.3443L237.4726,390.6557L271.8717,390.6557L262.5274,409.3443L228.1283,409.3443zM196.4343,461.3515C199.6753,461.5576 202.8769,459.8472 204.4205,456.7598L219.7949,426.011L267.6777,426.011L268.1652,425.9126L269.5431,425.7998L270.4346,425.4544L270.9214,425.3561L271.2361,425.1439L271.7746,424.9353L273.314,423.743L273.5702,423.5702L273.6065,423.5164L273.6879,423.4534C274.2558,422.8621 274.7453,422.1763 275.1312,421.4044L290.5056,390.6557L338.3883,390.6557C342.9907,390.6557 346.7217,386.9247 346.7217,382.3223C346.8006,377.8017 343.0696,374.0707 338.3883,373.989L298.839,373.989L310.4866,350.6938C312.5789,346.6857 310.9103,341.6801 306.7598,339.5134C302.6433,337.4552 297.6377,339.1237 295.5794,343.2402L280.205,373.989L232.3223,373.989L231.1452,374.2266L229.6871,374.4166L229.3992,374.5792L229.0786,374.6439L228.0187,375.3585L226.9051,375.9871L226.7038,376.245L226.4298,376.4298L225.6079,377.6487L224.8688,378.5955L209.4944,409.3443L161.6116,409.3443C157.0093,409.3443 153.2783,413.0753 153.2783,417.6777C153.1994,422.1983 156.9304,425.9293 161.6116,426.011L201.161,426.011L189.5134,449.3062C187.4212,453.3143 189.0897,458.3199 193.2402,460.4866C194.2693,461.0011 195.354,461.2828 196.4343,461.3515z" />
<glyph unicode="&#x00BB;" d="M375.5915,483.3378C378.7906,483.1018 381.7373,480.9467 382.9057,477.6352L407.9057,402.6352L408.0525,401.4431L408.3333,400L408.2702,399.6756L408.3102,399.3509L407.9673,398.119L407.7231,396.8642L407.5422,396.5917L407.4536,396.2732L406.5568,395.1078L405.8925,394.1075L330.8925,319.1074C327.7518,315.855 322.4754,315.855 319.1075,319.1074C315.8531,322.3618 315.8531,327.6382 319.1075,330.8926L390.4656,402.2507L367.0943,472.3648C365.6389,476.731 367.9986,481.4503 372.3648,482.9057C373.4307,483.2818 374.5251,483.4164 375.5915,483.3378zM150.5915,483.3378C153.7906,483.1018 156.7373,480.9467 157.9057,477.6352L182.9057,402.6352L183.0525,401.4433L183.3333,400L183.2702,399.6755L183.3102,399.3509L182.9673,398.1191L182.7231,396.8642L182.5422,396.5917L182.4536,396.2732L181.5569,395.1079L180.8926,394.1075L105.8926,319.1074C102.7518,315.855 97.47539,315.855 94.10744,319.1074C90.85307,322.3618 90.85307,327.6382 94.10744,330.8926L165.4656,402.2508L142.0943,472.3648C140.6389,476.731 142.9986,481.4503 147.3648,482.9057C148.4307,483.2818 149.5251,483.4164 150.5915,483.3378z" />
<glyph unicode="&#x00AB;" d="M399.9148,483.3318C402.0475,483.3318 404.2086,482.5187 405.8925,480.8925C409.1469,477.6382 409.1469,472.3618 405.8925,469.1075L334.5344,397.7493L357.9057,327.6353C359.3611,323.269 357.0014,318.5497 352.6352,317.0943C348.3715,315.5899 343.6522,317.9496 342.0943,322.3647L317.0943,397.3648L316.9475,398.5569L316.6667,400L316.7298,400.3244L316.6898,400.6491L317.0327,401.881L317.2769,403.1358L317.4578,403.4083L317.5464,403.7268L318.4432,404.8922L319.1075,405.8925L394.1075,480.8925C395.6779,482.5187 397.7821,483.3318 399.9148,483.3318zM174.9148,483.3318C177.0475,483.3318 179.2086,482.5187 180.8926,480.8925C184.1469,477.6382 184.1469,472.3618 180.8926,469.1075L109.5344,397.7492L132.9057,327.6353C134.3611,323.269 132.0014,318.5497 127.6352,317.0943C123.3715,315.5899 118.6522,317.9496 117.0943,322.3647L92.09431,397.3648L91.94752,398.5567L91.66666,400L91.7298,400.3245L91.68983,400.6491L92.03265,401.8808L92.27686,403.1358L92.4578,403.4083L92.54644,403.7268L93.44313,404.8922L94.10744,405.8925L169.1074,480.8925C170.6778,482.5187 172.7821,483.3318 174.9148,483.3318z" />
<glyph unicode="&#x0022;" d="M174.9148,483.3318C177.0475,483.3318 179.2086,482.5187 180.8926,480.8925C184.1469,477.6382 184.1469,472.3618 180.8926,469.1075L109.5344,397.7492L132.9057,327.6353C134.3611,323.269 132.0014,318.5497 127.6352,317.0943C123.3715,315.5899 118.6522,317.9496 117.0943,322.3647L92.09431,397.3648L91.94752,398.5567L91.66666,400L91.7298,400.3245L91.68983,400.6491L92.03265,401.8808L92.27686,403.1358L92.4578,403.4083L92.54644,403.7268L93.44313,404.8922L94.10744,405.8925L169.1074,480.8925C170.6778,482.5187 172.7821,483.3318 174.9148,483.3318zM375.5915,483.3378C378.7906,483.1018 381.7373,480.9467 382.9057,477.6352L407.9057,402.6352L408.0525,401.4431L408.3333,400L408.2702,399.6756L408.3102,399.3509L407.9673,398.119L407.7231,396.8642L407.5422,396.5917L407.4536,396.2732L406.5568,395.1078L405.8925,394.1075L330.8925,319.1074C327.7518,315.855 322.4754,315.855 319.1075,319.1074C315.8531,322.3618 315.8531,327.6382 319.1075,330.8926L390.4656,402.2507L367.0943,472.3648C365.6389,476.731 367.9986,481.4503 372.3648,482.9057C373.4307,483.2818 374.5251,483.4164 375.5915,483.3378z" />
<glyph unicode="&#x0027;" d="M258.8582,422.0731L234.5344,397.7492L241.1418,377.9269L265.4656,402.2507L258.8582,422.0731zM250.5915,483.3378C253.7906,483.1018 256.7373,480.9467 257.9057,477.6352L266.1418,452.9269L294.1075,480.8925C297.2482,484.1449 302.5246,484.1449 305.8925,480.8925C309.1469,477.6382 309.1469,472.3618 305.8925,469.1075L272.0344,435.2493L282.9057,402.6352L283.0525,401.4431L283.3333,400L283.2702,399.6756L283.3102,399.3509L282.9673,398.119L282.7231,396.8642L282.5422,396.5917L282.4536,396.2732L281.5568,395.1078L280.8925,394.1075L247.0344,360.2493L257.9057,327.6353C259.3611,323.269 257.0014,318.5497 252.6352,317.0943C248.3715,315.5899 243.6522,317.9496 242.0943,322.3647L233.8582,347.0731L205.8926,319.1074C202.7518,315.855 197.4754,315.855 194.1074,319.1074C190.8531,322.3618 190.8531,327.6382 194.1074,330.8926L227.9656,364.7507L217.0943,397.3648L216.9475,398.5567L216.6667,400L216.7298,400.3245L216.6898,400.6491L217.0327,401.8809L217.2769,403.1358L217.4578,403.4083L217.5464,403.7268L218.4431,404.8921L219.1074,405.8925L252.9656,439.7507L242.0943,472.3648C240.6389,476.731 242.9986,481.4503 247.3648,482.9057C248.4307,483.2818 249.5251,483.4164 250.5915,483.3378z" />
<glyph horiz-adv-x="1000" glyph-name="@" unicode="&#x0040;" d="M500,566.6666C406.3744,565.0325 331.7552,490.4132 333.3333,400C333.3333,307.9525 407.9525,233.3333 500,233.3333L666.6667,233.3333L666.6667,566.6666L500,566.6666zM500,758.3333L675,758.3333C774.4545,760.0693 856.5356,677.9882 858.3333,575L858.3333,225C858.3728,222.7396 857.4598,220.6768 855.9517,219.1687L855.9188,219.1465L855.8925,219.1075C854.3845,217.5994 852.3011,216.6667 850,216.6667L675,216.6667L500,216.6667C400.5455,214.9307 318.4643,297.0118 316.6667,400C316.6667,501.2522 398.7478,583.3334 500,583.3334L675,583.3334C679.6024,583.3334 683.3333,579.6024 683.3333,575L683.3333,233.3333L841.6667,233.3333L841.6667,575C841.6667,667.0475 767.0475,741.6667 675,741.6667L500,741.6667C308.0675,738.3165 155.0981,585.3471 158.3333,400C158.3333,211.3027 311.3027,58.33331 500,58.33331L850,58.33331C854.6024,58.33331 858.3333,54.60236 858.3333,50C858.4122,45.47931 854.6813,41.74835 850,41.66669L500,41.66669C305.6116,38.27362 145.1803,198.7049 141.6667,400C141.6667,597.902 302.098,758.3333 500,758.3333z" />
<glyph unicode="&#x0026;" d="M256.7824,367.364L256.7178,367.3439C254.5479,366.8999 252.3012,366.6667 250,366.6667C247.7397,366.6272 245.5287,366.8259 243.3894,367.2403L243.192,367.3L164.8896,171.5441C156.6637,150.9794 156.4128,129.2007 162.6695,109.632L165.3395,102.4775L167.4729,97.8374L169.253,94.17664L171.5612,90.25476L173.9129,86.40356L176.3356,83.09601L179.2365,79.23505L182.032,76.11987L185.1809,72.68073L188.6186,69.53314L191.7352,66.73639L195.595,63.8363L198.9037,61.41284L202.754,59.06165L206.6768,56.75293L210.337,54.97308L214.9776,52.83942L217.7176,51.81689L225.034,49.43829C240.2326,45.30884 255.6897,45.09131 270.1574,48.25085L278.5142,50.49518L279.1796,50.72314L285.4588,53.06726L292.6534,56.51324C309.2779,65.50305 322.287,78.82874 330.7567,94.33411L334.322,101.668L334.7559,102.6519L337.6791,110.4861C343.9099,129.9916 343.5428,151.4855 335.1104,171.5441L256.7824,367.364zM252.1302,753.8888C244.5577,754.0645 237.0764,753.3289 229.8426,751.7491L221.4856,749.5048L220.8209,749.277L214.541,746.9327L207.3466,743.4868C190.7221,734.4969 177.713,721.1713 169.2433,705.666L165.6779,698.3317L165.2442,697.3483L162.3209,689.5139C156.0901,670.0084 156.4572,648.5145 164.8896,628.4558L243.2175,432.6361L243.2822,432.6561C245.4521,433.1002 247.6988,433.3333 250,433.3333C252.2603,433.3728 254.4713,433.1741 256.6106,432.7597L256.808,432.7L335.1104,628.4558C343.3362,649.0206 343.5872,670.7993 337.3305,690.368L334.6605,697.5225L332.527,702.1627L330.747,705.8233L328.4386,709.7456L326.0871,713.5964L323.664,716.9046L320.7635,720.7649L317.9672,723.881L314.8192,727.3192L311.3802,730.4679L308.265,733.2635L304.4037,736.1646L301.0965,738.587L297.2448,740.9391L293.3235,743.2469L289.662,745.0274L285.0226,747.1605L282.2821,748.1832L274.966,750.5618C267.3667,752.6265 259.7028,753.7132 252.1302,753.8888zM251.3109,771.1552C264.3411,770.9615 277.1945,768.3167 289.2491,763.4874L289.8981,763.2L290.234,763.085C317.7071,752.6481 338.1987,731.668 349.1201,706.1848L349.7613,704.4671L350.585,702.734L350.7554,701.8042L352.7619,696.4293C360.1893,673.229 360.0417,647.1591 350.585,622.266L278.3284,441.6247L283.4924,444.6981C300.1489,453.8633 319.2046,458.4991 338.5968,458.0526C356.226,457.6468 374.1334,453.0408 390.7692,443.8194C394.755,441.5182 396.1206,436.4216 393.8194,432.4359C391.6274,428.4814 386.5309,427.1158 382.4359,429.3857C349.5533,448.3704 309.7975,444.6668 281.2958,423.132L276.91,419.4653L277.4107,418.8589C281.0355,413.5093 283.2108,407.0219 283.3333,400C283.3333,390.7953 279.6024,382.4619 273.5702,376.4298L271.718,374.9016L350.585,177.734C360.3065,153.4302 360.603,127.6918 353.2088,104.5651L350.6707,97.76404L350.585,97.26599L350.0534,96.1098L349.574,94.82538L347.532,90.62598L345.952,87.18951L345.4283,86.29968L345.0279,85.47632L342.7003,81.66461L340.4329,77.81201L339.9211,77.11328L339.6007,76.58856L337.0578,73.2041L334.0985,69.16394L333.6296,68.64142L333.3227,68.23297L330.3253,64.95923L327.0196,61.27557L326.6045,60.89551L326.2244,60.48035L322.5407,57.17468L319.267,54.17725L318.8586,53.87042L318.336,53.40149L314.2959,50.44226L310.9114,47.89935L310.3867,47.57892L309.688,47.06714L305.8355,44.79974L302.0237,42.47211L301.2003,42.07172L300.3105,41.54803L296.8741,39.96808L292.6746,37.92596L291.3901,37.44659L290.234,36.91504C266.5284,26.9494 241.1264,26.51556 218.0745,33.87927L211.8753,36.19244L209.766,36.91504L208.8158,37.33405L208.3508,37.50751L207.6532,37.84662L199.7959,41.31128C177.3195,52.66724 160.4361,71.5174 150.8799,93.81519L150.216,95.59375L149.415,97.26599L149.2446,98.19586L147.2381,103.5707C139.8107,126.771 139.9583,152.8409 149.415,177.734L221.6754,358.3848L220.9893,357.9134C188.5828,337.945 145.8295,335.8936 109.2308,356.1806C105.245,358.4818 103.8794,363.5784 106.1806,367.5641C108.3726,371.5186 113.4692,372.8842 117.5641,370.6143C150.4467,351.6295 190.2025,355.3331 218.7042,376.868L223.09,380.5347L222.5893,381.1411C218.9645,386.4907 216.7892,392.9781 216.6667,400C216.6667,409.2047 220.3976,417.5381 226.4298,423.5702L228.282,425.0985L149.415,622.266C139.6935,646.5698 139.397,672.3082 146.7912,695.4349L149.3293,702.2359L149.415,702.734L149.9467,703.8903L150.4259,705.1746L152.4679,709.3739L154.048,712.8105L154.5717,713.7003L154.9721,714.5237L157.2997,718.3354L159.5671,722.188L160.0789,722.8867L160.3993,723.4114L162.9423,726.7959L165.9015,730.8361L166.3704,731.3586L166.6773,731.767L169.6747,735.0408L172.9804,738.7244L173.3955,739.1045L173.7756,739.5197L177.4592,742.8253L180.733,745.8228L181.1414,746.1296L181.664,746.5985L185.7041,749.5577L189.0886,752.1007L189.6133,752.4211L190.312,752.9329L194.1646,755.2003L197.9763,757.5279L198.7997,757.9282L199.6895,758.452L203.1261,760.0321L207.3254,762.074L208.6097,762.5533L209.766,763.085C223.3121,768.7796 237.412,771.3618 251.3109,771.1552z" />
<glyph unicode="&#x0021;" d="M250,83.33331C268.0826,83.64899 283.0065,68.7251 283.3333,50C283.3333,31.59052 268.4095,16.66669 250,16.66669C231.9174,16.35101 216.9935,31.2749 216.6667,50C216.6667,68.40948 231.5905,83.33331 250,83.33331zM250,783.3333C254.6024,783.3333 258.3333,779.6024 258.3333,775L258.3333,275C258.4122,270.4793 254.6813,266.7484 250,266.6667C245.3976,266.6667 241.6667,270.3976 241.6667,275L241.6667,775C241.5878,779.5206 245.3187,783.2516 250,783.3333z" />
<glyph unicode="&#x003F;" d="M250,83.33331C268.0826,83.64899 283.0065,68.7251 283.3333,50C283.3333,31.59052 268.4095,16.66669 250,16.66669C231.9174,16.35101 216.9935,31.2749 216.6667,50C216.6667,68.40948 231.5905,83.33331 250,83.33331zM249.9997,266.6667L249.9997,266.6667zM250,783.3333C335.8925,784.8326 406.7808,713.9443 408.3333,625C408.3333,537.5549 337.4451,466.6667 250,466.6667C198.5059,465.7678 157.4653,424.7273 158.3333,375C158.3333,324.3739 199.3739,283.3333 250,283.3333L250,283.3943L250.937,283.3497C274.3965,283.3497 297.5438,292.2938 314.8181,310.1819C316.4453,311.8091 318.578,312.6226 320.7107,312.6226C322.8434,312.6226 324.9761,311.8091 326.6032,310.1819C329.8556,307.0411 329.8556,301.7647 326.6032,298.3968C305.4498,277.2434 277.7249,266.6667 250,266.6667C191.2314,265.6409 142.7289,314.1434 141.6667,375C141.6667,434.8308 190.1692,483.3333 250,483.3333C329.5818,484.7224 393.0081,548.1488 391.6667,625C391.6667,703.2404 328.2403,766.6667 250,766.6667L250,766.5724L248.5519,766.6414C212.2962,766.6414 176.5233,752.8187 149.8265,725.1735C146.5722,721.9191 141.2958,721.9191 138.0414,725.1735C134.789,728.3143 134.789,733.5906 138.0414,736.9586C168.9579,767.8751 209.479,783.3333 250,783.3333z" />
<glyph unicode="&#x2265;" d="M100,133.3333L400,133.3333C404.6024,133.3333 408.3333,129.6024 408.3333,125C408.4122,120.4793 404.6813,116.7484 400,116.6667L100,116.6667C95.39763,116.6667 91.66666,120.3976 91.66666,125C91.58776,129.5207 95.31872,133.2516 100,133.3333zM99.91482,683.3318C102.0475,683.3318 104.2086,682.5187 105.8926,680.8926L405.8925,380.8926L405.893,380.8919L407.6785,378.2437L407.6902,378.1854L407.7231,378.1359L408.3327,375.0031L408.3333,375C408.3728,372.7396 407.4598,370.6768 405.9517,369.1687L405.9182,369.146L405.8925,369.1074C404.3221,367.4812 402.2179,366.6682 400.0852,366.6682L400.0441,366.6761L400,366.6667L100,366.6667C95.39763,366.6667 91.66666,370.3976 91.66666,375C91.58776,379.5207 95.31872,383.2516 100,383.3333L379.8816,383.3333L94.10744,669.1074C90.85307,672.3618 90.85307,677.6382 94.10744,680.8926C95.67784,682.5187 97.78214,683.3318 99.91482,683.3318z" />
<glyph unicode="&#x2264;" d="M100,133.3333L400,133.3333C404.6024,133.3333 408.3333,129.6024 408.3333,125C408.4122,120.4793 404.6813,116.7484 400,116.6667L100,116.6667C95.39763,116.6667 91.66666,120.3976 91.66666,125C91.58776,129.5207 95.31872,133.2516 100,133.3333zM399.9148,683.3318C402.0475,683.3318 404.2086,682.5187 405.8925,680.8926C409.1469,677.6382 409.1469,672.3618 405.8925,669.1074L120.1184,383.3333L400,383.3333C404.6024,383.3333 408.3333,379.6024 408.3333,375C408.4122,370.4793 404.6813,366.7484 400,366.6667L100,366.6667L97.9502,367.0805L96.92805,367.278L96.90806,367.2909L96.75629,367.3215L94.10889,369.1065L94.10744,369.1074L94.10589,369.1097L92.32154,371.7563L92.30977,371.8146L92.27686,371.8641L91.66672,374.9998L91.66666,375C91.62721,377.2604 92.54022,379.3232 94.04826,380.8313L94.08181,380.854L94.10744,380.8926L394.1075,680.8926C395.6779,682.5187 397.7821,683.3318 399.9148,683.3318z" />
<glyph unicode="&#x003D;" d="M100,283.3333L400,283.3333C404.6024,283.3333 408.3333,279.6024 408.3333,275C408.4122,270.4793 404.6813,266.7484 400,266.6667L100,266.6667C95.39763,266.6667 91.66666,270.3976 91.66666,275C91.58776,279.5207 95.31872,283.2516 100,283.3333zM100,533.3334L400,533.3334C404.6024,533.3334 408.3333,529.6024 408.3333,525C408.4122,520.4794 404.6813,516.7484 400,516.6666L100,516.6666C95.39763,516.6666 91.66666,520.3976 91.66666,525C91.58776,529.5206 95.31872,533.2516 100,533.3334z" />
<glyph unicode="&#x003E;" d="M124.9148,658.3318C127.0475,658.3318 129.2086,657.5187 130.8926,655.8926L380.8925,405.8925C384.1469,402.6382 384.1469,397.3618 380.8925,394.1075L130.8926,144.1074C127.7518,140.855 122.4754,140.855 119.1074,144.1074C115.8531,147.3618 115.8531,152.6382 119.1074,155.8926L363.2149,400L119.1074,644.1074C115.8531,647.3618 115.8531,652.6382 119.1074,655.8926C120.6778,657.5187 122.7821,658.3318 124.9148,658.3318z" />
<glyph unicode="&#x003C;" d="M374.9148,658.3318C377.0475,658.3318 379.2086,657.5187 380.8925,655.8926C384.1469,652.6382 384.1469,647.3618 380.8925,644.1074L136.7851,400L380.8925,155.8926C384.1469,152.6382 384.1469,147.3618 380.8925,144.1074C377.7518,140.855 372.4754,140.855 369.1075,144.1074L119.1074,394.1075C115.8531,397.3618 115.8531,402.6382 119.1074,405.8925L369.1075,655.8926C370.6779,657.5187 372.7821,658.3318 374.9148,658.3318z" />
<glyph unicode="&#x00A6;" d="M250,258.3333C268.0826,258.649 283.0065,243.7251 283.3333,225C283.3333,211.1929 274.9387,199.3464 262.9748,194.2862L258.3333,192.8454L258.3333,-92.76111L262.791,-94.10864C274.6323,-99.05054 283.0882,-110.9562 283.3333,-125C283.3333,-143.4095 268.4095,-158.3334 250,-158.3334C231.9174,-158.6489 216.9935,-143.7251 216.6667,-125C216.6667,-111.1929 225.0613,-99.34644 237.0252,-94.28619L241.6667,-92.8454L241.6667,192.7611L237.209,194.1086C225.3678,199.0505 216.9118,210.9562 216.6667,225C216.6667,243.4095 231.5905,258.3333 250,258.3333zM250,958.3333C268.0826,958.649 283.0065,943.7251 283.3333,925C283.3333,911.1929 274.9387,899.3464 262.9748,894.2862L258.3333,892.8453L258.3333,607.2389L262.791,605.8914C274.6323,600.9495 283.0882,589.0438 283.3333,575C283.3333,556.5905 268.4095,541.6666 250,541.6666C231.9174,541.3511 216.9935,556.2749 216.6667,575C216.6667,588.8071 225.0613,600.6536 237.0252,605.7139L241.6667,607.1547L241.6667,892.7611L237.209,894.1086C225.3678,899.0505 216.9118,910.9562 216.6667,925C216.6667,943.4095 231.5905,958.3333 250,958.3333z" />
<glyph unicode="&#x007C;" d="M250,958.3333C268.0826,958.649 283.0065,943.7251 283.3333,925C283.3333,911.1929 274.9387,899.3464 262.9748,894.2862L258.3333,892.8453L258.3333,-92.76111L262.791,-94.10864C274.6323,-99.05054 283.0882,-110.9562 283.3333,-125C283.3333,-143.4095 268.4095,-158.3334 250,-158.3334C231.9174,-158.6489 216.9935,-143.7251 216.6667,-125C216.6667,-111.1929 225.0613,-99.34644 237.0252,-94.28619L241.6667,-92.8454L241.6667,892.7611L237.209,894.1086C225.3678,899.0505 216.9118,910.9562 216.6667,925C216.6667,943.4095 231.5905,958.3333 250,958.3333z" />
<glyph unicode="&#x005D;" d="M100,958.3333C113.562,958.5701 125.3471,950.2346 130.53,938.1524L132.0667,933.3333L250,933.3333L252.0539,932.9187L253.072,932.722L253.0919,932.7091L253.2437,932.6785L255.8925,930.8926L255.8926,930.8926L355.8925,830.8926L355.8926,830.8926C356.6466,830.1385 357.2568,829.2407 357.6785,828.2437L357.6902,828.1854L357.7231,828.1359L358.3327,825.0031L358.3333,825L358.3333,-25C358.3728,-27.26038 357.4598,-29.32324 355.9517,-30.8313L355.9182,-30.854L355.8925,-30.89258L255.8926,-130.8926C254.3222,-132.5188 252.2179,-133.3318 250.0852,-133.3318L250.0443,-133.324L250,-133.3334L132.1546,-133.3334L130.7138,-137.9749C125.6536,-149.9387 113.8071,-158.3334 100,-158.3334C81.91736,-158.6489 66.99352,-143.7251 66.66666,-125C66.66666,-106.5905 81.59051,-91.66669 100,-91.66669C113.562,-91.42993 125.3471,-99.76544 130.53,-111.8477L132.0667,-116.6667L246.5482,-116.6667L341.6667,-21.54822L341.6667,821.5482L246.5482,916.6667L132.1546,916.6667L130.7138,912.0251C125.6536,900.0613 113.8071,891.6667 100,891.6667C81.91736,891.351 66.99352,906.2749 66.66666,925C66.66666,943.4095 81.59051,958.3333 100,958.3333z" />
<glyph unicode="&#x005B;" d="M400,958.3333C418.0826,958.649 433.0065,943.7251 433.3333,925C433.3333,906.5905 418.4095,891.6667 400,891.6667C386.438,891.4299 374.6529,899.7654 369.47,911.8476L367.9333,916.6667L253.4518,916.6667L158.3333,821.5482L158.3333,-21.54822L253.4518,-116.6667L367.8453,-116.6667L369.2862,-112.0251C374.3464,-100.0613 386.1929,-91.66669 400,-91.66669C418.0826,-91.35101 433.0065,-106.2749 433.3333,-125C433.3333,-143.4095 418.4095,-158.3334 400,-158.3334C386.438,-158.5701 374.6529,-150.2345 369.47,-138.1523L367.9333,-133.3334L250,-133.3334L247.9389,-132.9172L246.928,-132.722L246.9083,-132.7092L246.7563,-132.6785C245.7593,-132.2568 244.8615,-131.6466 244.1075,-130.8926L244.1074,-130.8926L144.1074,-30.89258L144.1051,-30.8891L142.3215,-28.24371L142.3098,-28.18542L142.2769,-28.13586C141.8701,-27.13269 141.6667,-26.06635 141.6667,-25L141.6667,-24.99994L141.6667,824.9999L141.6667,825L141.6671,825.0021L142.2772,828.1978C142.689,829.1845 143.2943,830.0773 144.0483,830.8313L144.0818,830.8539L144.1074,830.8926L244.1074,930.8926C245.6778,932.5187 247.7821,933.3318 249.9148,933.3318L249.9558,933.3239L250,933.3333L367.8454,933.3333L369.2862,937.9749C374.3464,949.9387 386.1929,958.3333 400,958.3333z" />
<glyph unicode="&#x007D;" d="M100,958.3333C118.0826,958.649 133.0065,943.7251 133.3333,925L133.2088,923.765L138.1742,920.955C236.8895,862.4294 305.8687,741.1968 308.3333,600C308.3333,549.3739 349.3739,508.3333 400,508.3333C402.2603,508.3728 404.3232,507.4598 405.8313,505.9517L405.8547,505.9171L405.8925,505.8925L407.051,504.1479L407.6325,503.2881L407.6375,503.2649L407.7231,503.1358L408.3331,500.0012L408.3333,500L408.3327,499.9969L407.7231,496.8642L407.6902,496.8147L407.6785,496.7563C407.2568,495.7593 406.6466,494.8615 405.8926,494.1074L405.8925,494.1074L311.7851,400L405.8925,305.8926L407.0518,304.1469L407.6325,303.2881L407.6375,303.2649L407.7231,303.1359L408.3331,300.0012L408.3333,300L408.3327,299.9969L407.7231,296.8641L407.6902,296.8146L407.6785,296.7563L405.893,294.1081L405.8925,294.1074C404.3221,292.4812 402.2179,291.6682 400.0852,291.6682L400.0453,291.6758L400,291.6667C348.5059,290.7678 307.4653,249.7273 308.3333,200C308.3333,60.85016 240.0857,-59.77478 140.3692,-119.1318L133.1318,-123.2479L133.3333,-125C133.3333,-143.4095 118.4095,-158.3334 100,-158.3334C81.91736,-158.6489 66.99352,-143.7251 66.66666,-125C66.66666,-106.5905 81.59051,-91.66669 100,-91.66669C111.3017,-91.46936 121.3694,-97.22504 127.4107,-106.1411L127.6676,-106.611L134.813,-102.4923C230.0659,-45.07672 293.9474,69.33905 291.6667,200C291.6667,252.352 328.8014,296.0307 378.1671,306.1324L381.5641,306.6508L294.1075,394.1075C290.8531,397.3618 290.8531,402.6382 294.1075,405.8925L381.3487,493.1338L378.5156,493.531C329.847,502.9595 292.5961,546.7504 291.6667,600C291.6667,732.6778 227.1081,847.6922 132.7817,904.2885L128.0018,907.0286L127.6405,906.363C121.6503,897.4963 111.5059,891.6667 100,891.6667C81.91736,891.351 66.99352,906.2749 66.66666,925C66.66666,943.4095 81.59051,958.3333 100,958.3333z" />
<glyph unicode="&#x007B;" d="M400,958.3333C418.0826,958.649 433.0065,943.7251 433.3333,925C433.3333,906.5905 418.4095,891.6667 400,891.6667C388.6984,891.4694 378.6306,897.225 372.5893,906.1411L372.3324,906.611L365.187,902.4923C269.9341,845.0767 206.0526,730.661 208.3333,600C208.3333,547.648 171.1986,503.9693 121.8329,493.8676L118.4359,493.3492L205.8926,405.8925C209.1469,402.6382 209.1469,397.3618 205.8926,394.1075L118.6513,306.8661L121.4844,306.4689C170.153,297.0405 207.4039,253.2496 208.3333,200C208.3333,67.32227 272.8919,-47.6922 367.2183,-104.2885L371.9982,-107.0286L372.3595,-106.363C378.3497,-97.49634 388.4941,-91.66669 400,-91.66669C418.0826,-91.35101 433.0065,-106.2749 433.3333,-125C433.3333,-143.4095 418.4095,-158.3334 400,-158.3334C381.9174,-158.6489 366.9935,-143.7251 366.6667,-125L366.7912,-123.765L361.8258,-120.955C263.1106,-62.42938 194.1313,58.80322 191.6667,200C191.6667,250.6261 150.6261,291.6667 100,291.6667C97.73967,291.6272 95.67677,292.5402 94.16872,294.0483L94.14536,294.0828L94.10744,294.1074L92.94765,295.854L92.3675,296.7119L92.36256,296.7351L92.27686,296.8641L91.66669,299.9999L91.66666,300L91.66672,300.0002L92.27686,303.1359L92.30977,303.1854L92.32154,303.2437L94.10589,305.8903L94.10744,305.8926L188.2149,400L94.10744,494.1075L92.94843,495.8528L92.3675,496.7119L92.36256,496.7351L92.27686,496.8642L91.66669,499.9999L91.66666,500L91.66672,500.0003L92.27686,503.1358L92.30976,503.1854L92.32154,503.2437C92.74323,504.2407 93.35342,505.1385 94.10744,505.8926L94.11138,505.8952L96.80028,507.722C97.78923,508.1286 98.84848,508.3318 99.91482,508.3318L99.95457,508.3242L100,508.3333C151.4941,509.2322 192.5347,550.2727 191.6667,600C191.6667,739.1499 259.9142,859.7748 359.6308,919.1319L366.8682,923.2479L366.6667,925C366.6667,943.4095 381.5905,958.3333 400,958.3333z" />
<glyph unicode="&#x0029;" d="M100,958.3333C115.8223,958.6095 129.2262,947.218 132.5489,931.8214L132.9105,928.677L134.1338,928.1246C289.8681,852.92 404.044,645.7358 408.3333,400C408.3333,157.2877 295.0706,-49.25287 136.8732,-126.1936L133.0368,-127.9417L132.6561,-131.7179C129.5479,-146.9073 116.1083,-158.3334 100,-158.3334C81.91736,-158.6489 66.99352,-143.7251 66.66666,-125C66.66666,-106.5905 81.59051,-91.66669 100,-91.66669C111.3017,-91.46936 121.3694,-97.22504 127.4107,-106.1411L129.7688,-110.4551L133.8777,-108.543C287.9476,-32.15179 395.7237,167.5756 391.6667,400C391.6667,635.4671 283.0269,835.8423 131.2866,910.4863L130.1603,911.0054L127.6405,906.363C121.6503,897.4963 111.5059,891.6667 100,891.6667C81.91736,891.351 66.99352,906.2749 66.66666,925C66.66666,943.4095 81.59051,958.3333 100,958.3333z" />
<glyph unicode="&#x0028;" d="M400,958.3333C418.0826,958.649 433.0065,943.7251 433.3333,925C433.3333,906.5905 418.4095,891.6667 400,891.6667C388.6984,891.4694 378.6306,897.225 372.5893,906.1411L370.2312,910.4551L366.1223,908.543C212.0524,832.1518 104.2764,632.4244 108.3333,400C108.3333,164.5329 216.9731,-35.84222 368.7134,-110.4863L369.8397,-111.0054L372.3595,-106.363C378.3497,-97.49634 388.4941,-91.66669 400,-91.66669C418.0826,-91.35101 433.0065,-106.2749 433.3333,-125C433.3333,-143.4095 418.4095,-158.3334 400,-158.3334C384.1777,-158.6095 370.7738,-147.2179 367.4511,-131.8214L367.0895,-128.677L365.8662,-128.1246C210.1319,-52.91998 95.956,154.2642 91.66666,400C91.66666,642.7123 204.9294,849.2528 363.1267,926.1936L366.9632,927.9416L367.3439,931.7178C370.4521,946.9073 383.8917,958.3333 400,958.3333z" />
<glyph unicode="&#x00B1;" d="M100,208.3333L400,208.3333C404.6024,208.3333 408.3333,204.6024 408.3333,200C408.4122,195.4793 404.6813,191.7484 400,191.6667L100,191.6667C95.39763,191.6667 91.66666,195.3976 91.66666,200C91.58776,204.5207 95.31872,208.2516 100,208.3333zM250,658.3333C254.6024,658.3333 258.3333,654.6024 258.3333,650L258.3333,508.3333L400,508.3333C404.6024,508.3333 408.3333,504.6024 408.3333,500C408.4122,495.4793 404.6813,491.7484 400,491.6667L258.3333,491.6667L258.3333,350C258.4122,345.4793 254.6813,341.7484 250,341.6667C245.3976,341.6667 241.6667,345.3976 241.6667,350L241.6667,491.6667L100,491.6667C95.39763,491.6667 91.66666,495.3976 91.66666,500C91.58776,504.5207 95.31872,508.2516 100,508.3333L241.6667,508.3333L241.6667,650C241.5878,654.5206 245.3187,658.2516 250,658.3333z" />
<glyph unicode="&#x002A;" d="M250,558.3334C254.6024,558.3334 258.3333,554.6024 258.3333,550L258.3333,414.4337L375.7372,482.2169C376.7061,482.799 377.7513,483.1503 378.8117,483.287C381.9932,483.6973 385.3121,482.1766 387.1207,479.1667C389.4219,475.1809 388.0562,470.0843 384.0705,467.7831L266.6667,400L384.0705,332.2169C388.0249,330.0249 389.3906,324.9283 387.1207,320.8333C384.8195,316.8475 379.7229,315.4819 375.7372,317.7831L258.3333,385.5662L258.3333,250C258.4122,245.4793 254.6813,241.7484 250,241.6667C245.3976,241.6667 241.6667,245.3976 241.6667,250L241.6667,385.5663L124.2629,317.7831C120.3873,315.4545 115.2907,316.8201 112.8793,320.8333C110.5781,324.8191 111.9437,329.9157 115.9295,332.2169L233.3333,400L115.9295,467.7831C111.9751,469.9751 110.6094,475.0717 112.8793,479.1667C115.1805,483.1524 120.2771,484.5181 124.2629,482.2169L241.6667,414.4337L241.6667,550C241.5878,554.5206 245.3187,558.2516 250,558.3334z" />
<glyph unicode="&#x002B;" d="M250,558.3334C254.6024,558.3334 258.3333,554.6024 258.3333,550L258.3333,408.3333L400,408.3333C404.6024,408.3333 408.3333,404.6024 408.3333,400C408.4122,395.4793 404.6813,391.7484 400,391.6667L258.3333,391.6667L258.3333,250C258.4122,245.4793 254.6813,241.7484 250,241.6667C245.3976,241.6667 241.6667,245.3976 241.6667,250L241.6667,391.6667L100,391.6667C95.39763,391.6667 91.66666,395.3976 91.66666,400C91.58776,404.5207 95.31872,408.2516 100,408.3333L241.6667,408.3333L241.6667,550C241.5878,554.5206 245.3187,558.2516 250,558.3334z" />
<glyph horiz-adv-x="1000" unicode="&#x2014;" d="M5.102526E-16,408.3333L1000,408.3333C1004.602,408.3333 1008.333,404.6024 1008.333,400C1008.412,395.4793 1004.681,391.7484 1000,391.6667L-5.102526E-16,391.6667C-4.602373,391.6667 -8.333333,395.3976 -8.333333,400C-8.412242,404.5207 -4.681282,408.2516 5.102526E-16,408.3333z" />
<glyph horiz-adv-x="1000" unicode="&#x2013;" d="M5.102526E-16,408.3333L900,408.3333C904.6024,408.3333 908.3333,404.6024 908.3333,400C908.4122,395.4793 904.6813,391.7484 900,391.6667L-5.102526E-16,391.6667C-4.602373,391.6667 -8.333333,395.3976 -8.333333,400C-8.412242,404.5207 -4.681282,408.2516 5.102526E-16,408.3333z" />
<glyph horiz-adv-x="1000" unicode="&#x2012;" d="M100,408.3333L1000,408.3333C1004.602,408.3333 1008.333,404.6024 1008.333,400C1008.412,395.4793 1004.681,391.7484 1000,391.6667L100,391.6667C95.39763,391.6667 91.66666,395.3976 91.66666,400C91.58776,404.5207 95.31872,408.2516 100,408.3333z" />
<glyph unicode="&#x2010;" d="M50,408.3333L450,408.3333C454.6024,408.3333 458.3333,404.6024 458.3333,400C458.4122,395.4793 454.6813,391.7484 450,391.6667L50,391.6667C45.39763,391.6667 41.66667,395.3976 41.66667,400C41.58776,404.5207 45.31872,408.2516 50,408.3333z" />
<glyph unicode="&#x2011;" d="M5.102526E-16,408.3333L500,408.3333C504.6024,408.3333 508.3333,404.6024 508.3333,400C508.4122,395.4793 504.6813,391.7484 500,391.6667L-5.102526E-16,391.6667C-4.602373,391.6667 -8.333333,395.3976 -8.333333,400C-8.412242,404.5207 -4.681282,408.2516 5.102526E-16,408.3333z" />
<glyph unicode="&#x002D;" d="M100,408.3333L400,408.3333C404.6024,408.3333 408.3333,404.6024 408.3333,400C408.4122,395.4793 404.6813,391.7484 400,391.6667L100,391.6667C95.39763,391.6667 91.66666,395.3976 91.66666,400C91.58776,404.5207 95.31872,408.2516 100,408.3333z" />
<glyph unicode="&#x2026;" d="M142,308.3333C160.0826,308.649 175.0065,293.7251 175.3333,275C175.3333,256.5905 160.4095,241.6667 142,241.6667C123.9174,241.351 108.9935,256.2749 108.6667,275C108.6667,293.4095 123.5905,308.3333 142,308.3333zM358,433.3333C376.0826,433.649 391.0065,418.7251 391.3333,400C391.3333,381.5905 376.4095,366.6667 358,366.6667C339.9174,366.351 324.9935,381.2749 324.6667,400C324.6667,418.4095 339.5905,433.3333 358,433.3333zM142,558.3334C160.0826,558.6489 175.0065,543.7251 175.3333,525C175.3333,506.5905 160.4095,491.6667 142,491.6667C123.9174,491.351 108.9935,506.2749 108.6667,525C108.6667,543.4095 123.5905,558.3334 142,558.3334z" />
<glyph unicode="&#x003A;" d="M250,308.3333C268.0826,308.649 283.0065,293.7251 283.3333,275C283.3333,256.5905 268.4095,241.6667 250,241.6667C231.9174,241.351 216.9935,256.2749 216.6667,275C216.6667,293.4095 231.5905,308.3333 250,308.3333zM250,558.3334C268.0826,558.6489 283.0065,543.7251 283.3333,525C283.3333,506.5905 268.4095,491.6667 250,491.6667C231.9174,491.351 216.9935,506.2749 216.6667,525C216.6667,543.4095 231.5905,558.3334 250,558.3334z" />
<glyph unicode="&#x00B7;" d="M216.6667,400C216.6667,418.4095 231.5905,433.3333 250,433.3333C268.0826,433.649 283.0065,418.7251 283.3333,400C283.3333,381.5905 268.4095,366.6667 250,366.6667C231.9174,366.351 216.9935,381.2749 216.6667,400z" />
<glyph unicode="&#x002E;" d="M216.6667,400C216.6667,418.4095 231.5905,433.3333 250,433.3333C268.0826,433.649 283.0065,418.7251 283.3333,400C283.3333,381.5905 268.4095,366.6667 250,366.6667C231.9174,366.351 216.9935,381.2749 216.6667,400z" />
<glyph unicode="&#x2022;" d="M166.6667,400C166.6667,446.0237 203.9763,483.3333 250,483.3333C295.2066,484.1224 332.5162,446.8128 333.3333,400C333.3333,353.9763 296.0237,316.6667 250,316.6667C204.7934,315.8776 167.4838,353.1872 166.6667,400z" />
<glyph unicode="&#x003B;" d="M162,433.3333C180.0826,433.649 195.0065,418.7251 195.3333,400C195.3333,381.5905 180.4095,366.6667 162,366.6667C143.9174,366.351 128.9935,381.2749 128.6667,400C128.6667,418.4095 143.5905,433.3333 162,433.3333zM319.9032,557.8081C329.2299,557.4172 338.3413,553.1324 344.6086,545.2534C354.6743,533.0427 354.1033,515.4613 344.1223,503.2763L343.6802,502.8333L347.9574,495.1243C392.0306,410.5901 370.7193,302.1029 291.6906,236.9566C288.0887,234.0916 282.8463,234.6889 279.9812,238.2908C277.1053,241.7795 277.7026,247.022 281.3153,250.0001C353.8026,307.6591 373.3817,407.1829 332.9986,486.661L329.4851,493.1661L327.4872,492.389C314.9742,488.9016 301.0298,492.9469 292.4347,503.7524C280.931,517.7076 283.3202,538.6774 297.7711,550.5898C303.1739,554.8875 309.4995,557.2374 315.9005,557.7365C317.234,557.8404 318.5708,557.864 319.9032,557.8081z" />
<glyph unicode="&#x002C;" d="M241.9005,557.7365C252.5686,558.5681 263.446,554.2581 270.6086,545.2534C280.6743,533.0427 280.1033,515.4613 270.1223,503.2763L269.6802,502.8333L273.9574,495.1243C318.0306,410.5901 296.7193,302.1029 217.6906,236.9566C214.0887,234.0916 208.8462,234.6889 205.9812,238.2908C203.1053,241.7795 203.7026,247.022 207.3153,250.0001C279.8026,307.6591 299.3817,407.1829 258.9986,486.661L255.485,493.1661L253.4872,492.389C240.9741,488.9016 227.0298,492.9469 218.4347,503.7524C206.931,517.7076 209.3202,538.6774 223.7711,550.5898C229.1739,554.8875 235.4995,557.2374 241.9005,557.7365z" />
<glyph unicode="&#x005C;" d="M100,958.3333C118.0826,958.649 133.0065,943.7251 133.3333,925C133.3333,913.4941 127.5037,903.3497 118.637,897.3595L116.8424,896.3854L399.167,-91.75067L400,-91.66669C418.0826,-91.35101 433.0065,-106.2749 433.3333,-125C433.3333,-143.4095 418.4095,-158.3334 400,-158.3334C381.9174,-158.6489 366.9935,-143.7251 366.6667,-125C366.6667,-113.4941 372.4963,-103.3497 381.363,-97.3595L383.1576,-96.38544L100.833,891.7507L100,891.6667C81.91736,891.351 66.99352,906.2749 66.66666,925C66.66666,943.4095 81.59051,958.3333 100,958.3333z" />
<glyph unicode="&#x002F;" d="M400,958.3333C418.0826,958.649 433.0065,943.7251 433.3333,925C433.3333,906.5905 418.4095,891.6667 400,891.6667L399.1637,891.7393L116.8651,-96.30591L118.4072,-97.13757C127.2228,-103.0785 133.1291,-113.2968 133.3333,-125C133.3333,-143.4095 118.4095,-158.3334 100,-158.3334C81.91736,-158.6489 66.99352,-143.7251 66.66666,-125C66.66666,-106.5905 81.59051,-91.66669 100,-91.66669L100.8363,-91.73926L383.1349,896.3059L381.5928,897.1376C372.7772,903.0785 366.8709,913.2968 366.6667,925C366.6667,943.4095 381.5905,958.3333 400,958.3333z" />
<glyph unicode="&#x0025;" d="M332.5786,279.519L339.0517,277.916C392.6636,261.6755 432.2711,210.8567 433.3333,150C433.3333,76.36206 373.638,16.66669 300,16.66669C286.438,16.42993 273.3203,18.3363 260.9483,22.08405L259.2047,22.71033L263.8023,38.80176L265.8297,38.07355C276.6552,34.79425 288.1333,33.12616 300,33.33331C364.4332,33.33331 416.6667,85.56677 416.6667,150C415.7372,203.2496 381.0807,247.7161 334.1703,261.9265L327.9895,263.4572L332.5786,279.519zM200,783.3333C213.562,783.5701 226.6798,781.6638 239.0517,777.916L240.7953,777.2897L236.1977,761.1982L234.1703,761.9265C223.3448,765.2057 211.8667,766.8738 200,766.6667C135.5668,766.6667 83.33334,714.4332 83.33334,650C84.26281,596.7504 118.9193,552.2839 165.8297,538.0735L172.0105,536.5428L167.4214,520.481L160.9483,522.084C107.3364,538.3245 67.72892,589.1433 66.66666,650C66.66666,723.6379 126.362,783.3333 200,783.3333zM400,958.3333C418.0826,958.649 433.0065,943.7251 433.3333,925C433.3333,906.5905 418.4095,891.6667 400,891.6667L399.1637,891.7393L116.8651,-96.30591L118.4072,-97.13757C127.2228,-103.0785 133.1291,-113.2968 133.3333,-125C133.3333,-143.4095 118.4095,-158.3334 100,-158.3334C81.91736,-158.6489 66.99352,-143.7251 66.66666,-125C66.66666,-106.5905 81.59051,-91.66669 100,-91.66669L100.8363,-91.73926L383.1349,896.3059L381.5928,897.1376C372.7772,903.0785 366.8709,913.2968 366.6667,925C366.6667,943.4095 381.5905,958.3333 400,958.3333z" />
<glyph horiz-adv-x="1000" unicode="&#x2122;" d="M325,583.3334L500,583.3334L675,583.3334C679.6024,583.3334 683.3333,579.6024 683.3333,575C683.4122,570.4794 679.6813,566.7484 675,566.6666L508.3333,566.6666L508.3333,245.1185L669.1074,405.8925C670.6779,407.5187 672.7821,408.3318 674.9148,408.3318L674.9558,408.3239L675,408.3333L677.0566,407.9181L678.072,407.722L678.0918,407.7091L678.2437,407.6785L680.8923,405.8927L680.8926,405.8925L680.8942,405.8901L682.6785,403.2437L682.6902,403.1854L682.7231,403.1358C683.1299,402.1327 683.3333,401.0663 683.3333,400L683.3333,399.9999L683.3333,225C683.4122,220.4793 679.6813,216.7484 675,216.6667C670.3976,216.6667 666.6667,220.3976 666.6667,225L666.6667,379.8816L505.8925,219.1074C505.1074,218.2943 504.1887,217.6845 503.1997,217.278L503.1997,217.278L503.1997,217.278L502.6713,217.1745L500.0852,216.6682L500.044,216.6761L500,216.6667L497.9499,217.0806L496.9281,217.278L496.9281,217.278L496.9281,217.278L496.9238,217.2807L496.9081,217.2909L496.7563,217.3215L494.1093,219.1062L494.1075,219.1074L333.3333,379.8815L333.3333,225C333.4122,220.4793 329.6813,216.7484 325,216.6667C320.3976,216.6667 316.6667,220.3976 316.6667,225L316.6667,400C316.6272,402.2603 317.5402,404.3232 319.0483,405.8313L319.0818,405.854L319.1075,405.8925C320.6779,407.5187 322.7821,408.3318 324.9148,408.3318L324.9558,408.3239L325,408.3333L327.0571,407.918L328.0719,407.722L328.0918,407.7091L328.2437,407.6785C329.2407,407.2568 330.1385,406.6466 330.8926,405.8926L330.8926,405.8925L491.6667,245.1185L491.6667,566.6666L325,566.6666C320.3976,566.6666 316.6667,570.3976 316.6667,575C316.5878,579.5206 320.3187,583.2516 325,583.3334zM325,741.6667C231.3744,740.0324 156.7552,665.4132 158.3333,575L158.3333,225C158.3333,132.9525 232.9525,58.33331 325,58.33331L675,58.33331C768.6256,59.96759 843.2448,134.5868 841.6667,225L841.6667,575C841.6667,667.0475 767.0475,741.6667 675,741.6667L325,741.6667zM325,758.3333L675,758.3333C774.4545,760.0693 856.5356,677.9882 858.3333,575L858.3333,225C858.3333,123.7478 776.2522,41.66669 675,41.66669L325,41.66669C225.5455,39.93066 143.4643,122.0118 141.6667,225L141.6667,575C141.6667,676.2522 223.7478,758.3333 325,758.3333z" />
<glyph horiz-adv-x="1000" unicode="&#x00AE;" d="M412.5,583.3334L562.5,583.3334C628.0496,584.4775 682.1485,530.3785 683.3333,462.5C683.3333,399.9365 635.7855,348.4784 574.8545,342.2905L569.7523,342.0329L680.8926,230.8926C684.1469,227.6382 684.1469,222.3618 680.8926,219.1074C677.7518,215.855 672.4754,215.855 669.1074,219.1074L546.5482,341.6667L437.5,341.6667C432.8976,341.6667 429.1667,345.3976 429.1667,350C429.0878,354.5207 432.8187,358.2516 437.5,358.3333L562.5,358.3333C621.016,359.3547 667.653,405.9917 666.6667,462.5C666.6667,520.0297 620.0297,566.6666 562.5,566.6666L412.5,566.6666C368.0278,565.8904 332.5837,530.4463 333.3333,487.5L333.3333,225C333.4122,220.4793 329.6813,216.7484 325,216.6667C320.3976,216.6667 316.6667,220.3976 316.6667,225L316.6667,487.5C316.6667,540.4272 359.5727,583.3334 412.5,583.3334zM325,741.6667C231.3744,740.0324 156.7552,665.4132 158.3333,575L158.3333,225C158.3333,132.9525 232.9525,58.33331 325,58.33331L675,58.33331C768.6256,59.96759 843.2448,134.5868 841.6667,225L841.6667,575C841.6667,667.0475 767.0475,741.6667 675,741.6667L325,741.6667zM325,758.3333L675,758.3333C774.4545,760.0693 856.5356,677.9882 858.3333,575L858.3333,225C858.3333,123.7478 776.2522,41.66669 675,41.66669L325,41.66669C225.5455,39.93066 143.4643,122.0118 141.6667,225L141.6667,575C141.6667,676.2522 223.7478,758.3333 325,758.3333z" />
<glyph horiz-adv-x="1000" unicode="&#x00A9;" d="M499.9994,216.6667L499.9994,216.6667zM500,583.3334L500.463,583.245L506.9279,583.091C550.947,580.9948 594.9043,563.1765 629.6362,529.6362C632.8906,526.3818 632.8906,521.1055 629.6362,517.8511C626.4954,514.5988 621.2191,514.5988 617.8511,517.8511C587.3414,548.3608 547.9459,564.5691 507.9951,566.476L500,566.6666C406.3744,565.0325 331.7552,490.4132 333.3333,400C333.3333,307.9525 407.9525,233.3333 500,233.3333L500,233.4036L501.7036,233.363C544.3574,233.363 586.4432,249.625 617.8511,282.1489C619.4783,283.7761 621.611,284.5897 623.7437,284.5897C625.8764,284.5897 628.009,283.7761 629.6362,282.1489C632.8886,279.0081 632.8886,273.7317 629.6362,270.3638C593.8381,234.5657 546.9191,216.6667 500,216.6667C400.5455,214.9307 318.4643,297.0118 316.6667,400C316.6667,501.2522 398.7478,583.3334 500,583.3334zM500,741.6667C308.0675,738.3165 155.0981,585.3471 158.3333,400C158.3333,211.3027 311.3027,58.33331 500,58.33331C691.9326,61.68353 844.9019,214.6529 841.6667,400C841.6667,588.6973 688.6973,741.6667 500,741.6667zM500,758.3333C694.3884,761.7264 854.8197,601.2951 858.3333,400C858.3333,202.098 697.902,41.66669 500,41.66669C305.6116,38.27362 145.1803,198.7049 141.6667,400C141.6667,597.902 302.098,758.3333 500,758.3333z" />
<glyph horiz-adv-x="1000" glyph-name="#" unicode="&#x0023;" d="M333.3333,566.6666L333.3333,233.3333L666.6667,233.3333L666.6667,566.6666L333.3333,566.6666zM325,758.3333C329.6024,758.3333 333.3333,754.6024 333.3333,750L333.3333,583.3334L666.6667,583.3334L666.6667,750C666.5878,754.5206 670.3187,758.2516 675,758.3333C679.6024,758.3333 683.3333,754.6024 683.3333,750L683.3333,583.3334L850,583.3334C854.6024,583.3334 858.3333,579.6024 858.3333,575C858.4122,570.4794 854.6813,566.7484 850,566.6666L683.3333,566.6666L683.3333,233.3333L850,233.3333C854.6024,233.3333 858.3333,229.6024 858.3333,225C858.4122,220.4793 854.6813,216.7484 850,216.6667L683.3333,216.6667L683.3333,50C683.4122,45.47931 679.6813,41.74835 675,41.66669C670.3976,41.66669 666.6667,45.39764 666.6667,50L666.6667,216.6667L333.3333,216.6667L333.3333,50C333.4122,45.47931 329.6813,41.74835 325,41.66669C320.3976,41.66669 316.6667,45.39764 316.6667,50L316.6667,216.6667L150,216.6667C145.3976,216.6667 141.6667,220.3976 141.6667,225C141.5878,229.5207 145.3187,233.2516 150,233.3333L316.6667,233.3333L316.6667,566.6666L150,566.6666C145.3976,566.6666 141.6667,570.3976 141.6667,575C141.5878,579.5206 145.3187,583.2516 150,583.3334L316.6667,583.3334L316.6667,750C316.5878,754.5206 320.3187,758.2516 325,758.3333z" />
<glyph horiz-adv-x="1000" glyph-name="№" unicode="&#x2116;" d="M675,233.3333L850,233.3333C854.6024,233.3333 858.3333,229.6024 858.3333,225C858.4122,220.4793 854.6813,216.7484 850,216.6667L675,216.6667C670.3976,216.6667 666.6667,220.3976 666.6667,225C666.5878,229.5207 670.3187,233.2516 675,233.3333zM675,741.6667C581.3744,740.0324 506.7552,665.4132 508.3333,575C508.3333,482.9525 582.9525,408.3333 675,408.3333C768.6256,409.9676 843.2448,484.5868 841.6667,575C841.6667,667.0475 767.0475,741.6667 675,741.6667zM675,758.3333C774.4545,760.0693 856.5356,677.9882 858.3333,575C858.3333,473.7478 776.2522,391.6667 675,391.6667C603.517,390.4189 541.0092,432.4713 510.8355,494.4646L508.3333,499.9336L508.3333,50L508.1757,49.17438L508.1715,48.36572L507.8908,47.68201L507.7228,46.80225L507.2267,46.06458L506.9582,45.4104L506.4309,44.88129L505.9517,44.1687L505.2444,43.69037L504.6225,43.06622L503.8214,42.72815L503.2881,42.36749L502.6392,42.22919L501.6232,41.80042L500.6459,41.80438L500,41.66669L499.2909,41.80981L498.4495,41.81323L497.6456,42.14203L496.7563,42.32153L496.0621,42.78961L495.4733,43.0304L494.9542,43.53656L494.1074,44.10748L493.606,44.8512L493.0663,45.3775L158.3333,547.4769L158.3333,50C158.4122,45.47931 154.6813,41.74835 150,41.66669C145.3976,41.66669 141.6667,45.39764 141.6667,50L141.6667,575L141.8243,575.8256L141.8285,576.6343L142.1092,577.318L142.2772,578.1978L142.7732,578.9354L143.0418,579.5896L143.5691,580.1188L144.0483,580.8313L144.7556,581.3096L145.3775,581.9337L146.1785,582.2719L146.7119,582.6325L147.3609,582.7709L148.3768,583.1996L149.3539,583.1956L150,583.3334L150.7093,583.1902L151.5505,583.1868L152.3542,582.858L153.2437,582.6785L153.938,582.2103L154.5267,581.9696L155.0457,581.4635L155.8925,580.8926L156.394,580.1488L156.9337,579.6225L491.6667,77.52313L491.6667,575C491.6667,676.2522 573.7478,758.3333 675,758.3333z" />
<glyph horiz-adv-x="1000" unicode="&#x0024;" d="M325,758.3333C329.6024,758.3333 333.3333,754.6024 333.3333,750L333.3333,658.3333L666.6667,658.3333L666.6667,750C666.5878,754.5206 670.3187,758.2516 675,758.3333C679.6024,758.3333 683.3333,754.6024 683.3333,750L683.3333,658.3333L714.7865,658.3333L727.2811,658.6579C774.1167,657.5466 819.6221,631.0056 843.8008,585.5321C845.8903,581.4313 844.2598,576.4132 840.1591,574.3237C836.1669,572.2011 831.1488,573.8316 828.9507,577.9656C808.84,617.4352 769.3494,640.5587 727.9762,641.651L725,641.5846L725,641.6666L675,641.6666L325,641.6666L275,641.6666C209.4621,640.5227 157.2286,588.2892 158.3333,525C158.3333,460.5668 210.5668,408.3333 275,408.3333L725,408.3333C797.3306,409.5959 857.0259,349.9005 858.3333,275C858.3333,201.3621 798.6379,141.6667 725,141.6667L683.3333,141.6667L683.3333,50C683.4122,45.47931 679.6813,41.74835 675,41.66669C670.3976,41.66669 666.6667,45.39764 666.6667,50L666.6667,141.6667L333.3333,141.6667L333.3333,50C333.4122,45.47931 329.6813,41.74835 325,41.66669C320.3976,41.66669 316.6667,45.39764 316.6667,50L316.6667,141.6667L285.2136,141.6667L272.7189,141.3421C225.8833,142.4534 180.3778,168.9944 156.1991,214.468C154.1097,218.5687 155.7402,223.5868 159.8409,225.6763C160.839,226.2069 161.9011,226.503 162.9673,226.584C166.1658,226.8271 169.4007,225.1349 171.0492,222.0344C191.16,182.5648 230.6506,159.4413 272.0238,158.349L275,158.4155L275,158.3333L325,158.3333L675,158.3333L725,158.3333C790.538,159.4773 842.7714,211.7108 841.6667,275C841.6667,339.4332 789.4332,391.6667 725,391.6667L275,391.6667C202.6694,390.4041 142.9741,450.0995 141.6667,525C141.6667,598.6379 201.362,658.3333 275,658.3333L316.6667,658.3333L316.6667,750C316.5878,754.5206 320.3187,758.2516 325,758.3333z" />
<glyph horiz-adv-x="1000" unicode="&#x20BD;" d="M333.3333,741.5987L333.3333,417.0262L356.3614,418.8856C638.6738,443.3867 842.8771,505.6501 841.6667,575C841.6667,664.171 624.5787,736.986 351.5876,741.4498L333.3333,741.5987zM352.2766,758.5588C632.3878,758.2886 856.5349,678.0374 858.3333,575C858.3333,492.7326 648.9769,423.1211 360.6367,399.909L333.3333,397.9022L333.3333,208.3333L500,208.3333C504.6024,208.3333 508.3333,204.6024 508.3333,200C508.4122,195.4793 504.6813,191.7484 500,191.6667L333.3333,191.6667L333.3333,50C333.4122,45.47931 329.6813,41.74835 325,41.66669C320.3976,41.66669 316.6667,45.39764 316.6667,50L316.6667,191.6667L150,191.6667C145.3976,191.6667 141.6667,195.3976 141.6667,200C141.5878,204.5207 145.3187,208.2516 150,208.3333L316.6667,208.3333L316.6667,396.8198L292.7539,395.3913C246.6431,392.9492 198.9002,391.6667 150,391.6667C145.4793,391.5878 141.7484,395.3187 141.6667,400C141.6667,404.6024 145.3976,408.3333 150,408.3333C197.9359,409.1701 244.7183,411.0681 289.8838,413.9158L316.6667,415.7608L316.6667,750C316.6272,752.2603 317.5402,754.3232 319.0483,755.8313L319.0811,755.8535L319.1074,755.8926C320.6155,757.4006 322.6988,758.3333 325,758.3333C334.1467,758.493 343.2408,758.5675 352.2766,758.5588z" />
<glyph unicode="&#x044F;" d="M337.5,568.75C195.2371,566.2668 80.51008,529.8899 81.25,487.5C81.25,442.6269 195.977,406.25 337.5,406.25C383.1425,407.0467 419.5193,443.4236 418.75,487.5C418.75,532.3732 382.3731,568.75 337.5,568.75zM337.5,581.25C388.3574,582.1377 430.3307,540.1644 431.25,487.5C431.25,448.6675 407.64,415.3494 373.9917,401.1173L371.3427,400.1478L373.4746,399.382C406.7782,385.4829 430.5605,351.9983 431.25,312.5L431.25,225C431.3092,221.6095 428.511,218.8113 425,218.75C421.5482,218.75 418.75,221.5482 418.75,225L418.75,312.5C418.75,354.5685 386.7781,389.1697 345.8073,393.3305L343.5842,393.4428L343.5142,390.6729C338.6597,294.9058 259.4734,218.75 162.5,218.75L161.3358,218.9722L160.0969,218.9542C141.9323,219.5502 123.5752,225.3253 107.3951,236.6547C104.6026,238.6835 103.9835,242.5921 106.0124,245.3846C106.9849,246.7736 108.4483,247.6227 110.0281,247.873C111.608,248.1232 113.3042,247.7744 114.7424,246.7674C128.3561,236.8765 144.01,231.8264 159.6504,231.2917L162.5,231.331L162.5,231.25C254.3336,232.853 328.1071,303.8068 331.1755,391.4664L331.1955,393.7573L310.1886,393.7815C175.448,396.4708 69.6394,436.546 68.75,487.5C68.75,539.2767 189.0735,581.25 337.5,581.25z" />
<glyph horiz-adv-x="1000" glyph-name="ruYA" unicode="&#x042F;" d="M675,741.6667C388.1336,736.6594 156.814,662.0402 158.3333,575C158.3333,482.9525 389.6529,408.3333 675,408.3333C768.6256,409.9676 843.2448,484.5868 841.6667,575C841.6667,667.0475 767.0475,741.6667 675,741.6667zM675,758.3333C774.4545,760.0693 856.5356,677.9882 858.3333,575C858.3333,495.8967 808.235,428.4945 738.0361,402.7913L730.569,400.2647L737.1145,398.0988C806.5233,373.1584 856.9289,305.4595 858.3333,225L858.3333,50C858.4122,45.47931 854.6813,41.74835 850,41.66669C845.3976,41.66669 841.6667,45.39764 841.6667,50L841.6667,225C841.6667,314.171 771.6383,386.986 683.5767,391.4498L683.1174,391.4614L682.8671,381.5602C673.2698,192.2277 516.7176,41.66669 325,41.66669L323.0389,42.04108L320.3007,42.06604C284.7787,43.23157 248.8803,54.52502 217.2394,76.68024C213.516,79.38544 212.6906,84.59686 215.3958,88.32025C216.6924,90.17212 218.6436,91.30432 220.7501,91.63794C222.8565,91.97156 225.1182,91.50659 227.0358,90.16382C254.9613,69.87476 287.0718,59.51556 319.1547,58.41901L325,58.35956L325,58.33331C510.9347,61.57886 660.3033,205.2384 666.5159,382.7222L666.5934,391.5972L647.7233,391.4412C367.6122,391.7115 143.4652,471.9626 141.6667,575C141.6667,676.2522 380.4481,758.3333 675,758.3333z" />
<glyph unicode="&#x044E;" d="M337.5,568.75C242.7041,567.0953 167.1521,491.5434 168.75,400C168.75,306.8019 244.3019,231.25 337.5,231.25C383.1425,232.0467 419.5193,268.4236 418.75,312.5L418.75,487.5C418.75,532.3732 382.3731,568.75 337.5,568.75zM75,581.25C78.45178,581.25 81.25,578.4518 81.25,575L81.25,487.5C81.25,445.4314 113.2218,410.8303 154.1927,406.6695L156.4158,406.5572L156.4858,409.3271C161.3403,505.0941 240.5266,581.25 337.5,581.25C388.3574,582.1377 430.3307,540.1644 431.25,487.5L431.25,312.5C431.25,260.7233 389.2767,218.75 337.5,218.75C242.2483,217.0874 163.1158,293.1913 156.6472,390.517L156.5284,393.3542L154.0574,393.1905C112.4555,388.3761 80.52873,353.8217 81.25,312.5L81.25,225C81.30918,221.6095 78.51096,218.8113 75,218.75C71.54822,218.75 68.75,221.5482 68.75,225L68.75,312.5C68.75,351.3325 92.35999,384.6506 126.0083,398.8827L128.567,399.8192L128.0934,399.9809C93.97063,413.4722 69.45021,447.3845 68.75,487.5L68.75,575C68.69082,578.3905 71.48904,581.1887 75,581.25z" />
<glyph horiz-adv-x="1000" glyph-name="ruUU" unicode="&#x042E;" d="M675,741.6667C483.0675,738.3165 330.0981,585.3471 333.3333,400C333.3333,211.3027 486.3027,58.33331 675,58.33331C768.6256,59.96759 843.2448,134.5868 841.6667,225L841.6667,575C841.6667,667.0475 767.0475,741.6667 675,741.6667zM150,758.3333C154.6024,758.3333 158.3333,754.6024 158.3333,750L158.3333,575C158.3333,485.829 228.3617,413.0141 316.4234,408.5502L316.8826,408.5386L317.1329,418.4398C326.7302,607.7723 483.2824,758.3333 675,758.3333C774.4545,760.0693 856.5356,677.9882 858.3333,575L858.3333,225C858.3333,123.7478 776.2522,41.66669 675,41.66669C486.6862,38.37964 330.2404,188.838 317.452,381.2521L317.0297,391.3328L316.28,391.3014C226.7851,385.3533 156.8045,312.5878 158.3333,225L158.3333,50C158.4122,45.47931 154.6813,41.74835 150,41.66669C145.3976,41.66669 141.6667,45.39764 141.6667,50L141.6667,225C141.6667,304.1033 191.765,371.5055 261.9639,397.2087L269.4492,399.7415L264.4504,401.3473C194.2355,425.8268 143.0816,493.937 141.6667,575L141.6667,750C141.5878,754.5206 145.3187,758.2516 150,758.3333z" />
<glyph unicode="&#x044D;" d="M162.5,581.25L337.5,581.25C388.3574,582.1377 430.3307,540.1644 431.25,487.5C431.25,339.0735 310.9265,218.75 162.5,218.75L161.3358,218.9722L160.0969,218.9542C141.9323,219.5502 123.5752,225.3253 107.3951,236.6547C104.6026,238.6835 103.9835,242.5921 106.0124,245.3846C106.9849,246.7736 108.4483,247.6227 110.0281,247.873C111.608,248.1232 113.3042,247.7744 114.7424,246.7674C128.3561,236.8765 144.01,231.8264 159.6504,231.2917L162.5,231.331L162.5,231.25C283.9573,233.3701 384.6108,315.3771 411.6422,424.4529L413.4639,432.7097L409.8421,427.8663C392.6469,407.0306 366.6244,393.75 337.5,393.75L200,393.75C196.5482,393.75 193.75,396.5482 193.75,400C193.6908,403.3905 196.489,406.1887 200,406.25L337.5,406.25C383.1425,407.0467 419.5193,443.4236 418.75,487.5C418.75,532.3732 382.3731,568.75 337.5,568.75L162.5,568.75C116.8575,567.9533 80.48064,531.5764 81.25,487.5C81.25,484.0482 78.45178,481.25 75,481.25C71.6095,481.1908 68.81129,483.989 68.75,487.5C68.75,539.2767 110.7233,581.25 162.5,581.25z" />
<glyph horiz-adv-x="1000" glyph-name="ruEEE" unicode="&#x042D;" d="M325,758.3333L675,758.3333C774.4545,760.0693 856.5356,677.9882 858.3333,575C858.3333,280.4481 619.5519,41.66669 325,41.66669L323.0389,42.04108L320.3007,42.06604C284.7787,43.23157 248.8803,54.52502 217.2394,76.68024C213.516,79.38544 212.6906,84.59686 215.3958,88.32025C216.6924,90.17212 218.6436,91.30432 220.7501,91.63794C222.8565,91.97156 225.1182,91.50659 227.0358,90.16382C254.9613,69.87476 287.0718,59.51556 319.1547,58.41901L325,58.35956L325,58.33331C578.9595,62.76624 787.8085,240.4244 832.7751,472.536L834.9456,485.5377L827.0229,472.4966C794.0765,423.7296 738.2826,391.6667 675,391.6667L400,391.6667C395.3976,391.6667 391.6667,395.3976 391.6667,400C391.5878,404.5207 395.3187,408.2516 400,408.3333L675,408.3333C768.6256,409.9676 843.2448,484.5868 841.6667,575C841.6667,667.0475 767.0475,741.6667 675,741.6667L325,741.6667C231.3744,740.0324 156.7552,665.4132 158.3333,575C158.3333,570.3976 154.6024,566.6666 150,566.6666C145.4793,566.5878 141.7484,570.3187 141.6667,575C141.6667,676.2522 223.7478,758.3333 325,758.3333z" />
<glyph unicode="&#x044C;" d="M81.25,393.6754L81.25,312.5C81.25,267.6269 117.6269,231.25 162.5,231.25C304.7629,233.7332 419.4899,270.11 418.75,312.5C418.75,354.5685 283.4845,389.1697 110.1464,393.3305L81.25,393.6754zM75,581.25C78.45178,581.25 81.25,578.4518 81.25,575L81.25,406.2701L111.2551,406.3667C290.1061,404.3692 430.3468,364.2446 431.25,312.5C431.25,260.7233 310.9265,218.75 162.5,218.75C111.6426,217.8623 69.66926,259.8356 68.75,312.5L68.75,400L68.75,575C68.69082,578.3905 71.48904,581.1887 75,581.25z" />
<glyph horiz-adv-x="1000" glyph-name="ruY" unicode="&#x042C;" d="M158.3333,391.6159L158.3333,225C158.3333,132.9525 232.9525,58.33331 325,58.33331C611.8664,63.34058 843.186,137.9598 841.6667,225C841.6667,314.171 551.0489,386.986 185.5931,391.4498L158.3333,391.6159zM150,758.3333C154.6024,758.3333 158.3333,754.6024 158.3333,750L158.3333,408.4203L186.2794,408.712C558.8286,409.9734 856.5063,329.6713 858.3333,225C858.3333,123.7478 619.5519,41.66669 325,41.66669C225.5455,39.93066 143.4643,122.0118 141.6667,225L141.6667,400L141.6667,750C141.5878,754.5206 145.3187,758.2516 150,758.3333z" />
<glyph unicode="&#x044B;" d="M162.5,393.75C116.8575,392.9533 80.48064,356.5764 81.25,312.5C81.25,267.6269 117.6269,231.25 162.5,231.25C234.4747,232.5063 299.1438,261.8162 345.5159,308.1884L349.5959,312.4678L343.7548,318.6469C294.5614,367.9554 229.627,393.2697 164.291,393.7456L162.5,393.7159L162.5,393.75zM75,581.25C78.45178,581.25 81.25,578.4518 81.25,575L81.25,359.1372L84.76102,364.9165C101.6086,389.8542 130.1396,406.25 162.5,406.25L155.78,406.25L161.6435,406.3481C230.0526,405.8532 298.9487,379.2742 352.244,327.4966L357.9536,321.6531L362.0263,326.3563C398.4492,370.5139 419.8116,426.683 418.75,487.5L418.75,575C418.6908,578.3905 421.489,581.1887 425,581.25C428.4518,581.25 431.25,578.4518 431.25,575L431.25,487.5L431.25,225C431.3092,221.6095 428.511,218.8113 425,218.75C421.5482,218.75 418.75,221.5482 418.75,225L418.75,406.348L414.9423,395.0947C377.2637,292.1896 278.4582,218.75 162.5,218.75C111.6426,217.8623 69.66926,259.8356 68.75,312.5L68.75,575C68.69082,578.3905 71.48904,581.1887 75,581.25z" />
<glyph horiz-adv-x="1000" glyph-name="ruYI" unicode="&#x042B;" d="M325,391.6667C231.3744,390.0324 156.7552,315.4132 158.3333,225C158.3333,132.9525 232.9525,58.33331 325,58.33331C470.1197,60.86639 600.5095,119.9628 694.0078,213.4611L704.9354,224.9229L690.4569,240.2394C591.2702,339.658 460.3455,390.6982 328.6111,391.6577L325,391.5978L325,391.6667zM150,758.3333C154.6024,758.3333 158.3333,754.6024 158.3333,750L158.3333,301.3593L159.7453,304.4826C189.3538,365.9301 252.225,408.3333 325,408.3333L311.6662,408.3333L323.3002,408.5279C459.058,407.5458 595.782,354.8 701.5463,252.0475L716.0955,237.1572L727.297,250.0923C800.735,339.1257 843.8071,452.3771 841.6667,575L841.6667,750C841.5878,754.5206 845.3187,758.2516 850,758.3333C854.6024,758.3333 858.3333,754.6024 858.3333,750L858.3333,575L858.3333,50C858.4122,45.47931 854.6813,41.74835 850,41.66669C845.3976,41.66669 841.6667,45.39764 841.6667,50L841.6667,442.2495L841.5425,441.7117C782.3525,211.6586 573.5281,41.66669 325,41.66669C225.5455,39.93066 143.4643,122.0118 141.6667,225L141.6667,750C141.5878,754.5206 145.3187,758.2516 150,758.3333z" />
<glyph unicode="&#x044A;" d="M168.75,390.612L168.75,231.4532L188.8301,232.106C318.6527,238.3038 419.4437,272.7594 418.75,312.5C418.75,348.9594 317.1505,379.81 177.2207,390.0972L168.75,390.612zM75,581.25C113.1431,581.9158 146.2888,558.4723 160.8656,524.4911L162.3471,520.5212L163.6173,523.9917C177.8494,557.64 211.1675,581.25 250,581.25C253.3905,581.3092 256.1887,578.511 256.25,575C256.25,571.5482 253.4518,568.75 250,568.75C204.3575,567.9533 167.9806,531.5764 168.75,487.5L168.75,404.277L176.3177,403.8822C322.9891,394.1565 430.4597,357.7765 431.25,312.5C431.25,260.7233 310.9265,218.75 162.5,218.75C160.8047,218.7204 159.2576,219.4052 158.1265,220.5362L158.1099,220.5609L158.0806,220.5806C156.9496,221.7116 156.25,223.2741 156.25,225L156.25,391.3717L144.2776,392.0993C121.9003,393.1816 98.73099,393.75 75,393.75C71.6095,393.6908 68.81129,396.489 68.75,400C68.75,403.4518 71.54822,406.25 75,406.25C87.23676,406.4636 99.33175,406.4999 111.2551,406.3667C122.4333,406.2419 133.4607,405.9681 144.3126,405.5518L156.25,404.9291L156.25,487.5C156.25,532.3732 119.8731,568.75 75,568.75C71.6095,568.6908 68.81129,571.489 68.75,575C68.75,578.4518 71.54822,581.25 75,581.25z" />
<glyph horiz-adv-x="1000" glyph-name="ruYT" unicode="&#x042A;" d="M333.3333,385.7028L333.3333,58.54272L351.7256,59.00494C626.0965,68.01642 843.1385,140.6799 841.6667,225C841.6667,299.7886 637.2363,363.0718 355.6805,384.1736L333.3333,385.7028zM150,758.3333C230.8068,759.7438 300.1445,705.8219 324.2694,630.3112L324.7087,628.8124L324.909,629.5177C348.1211,704.147 417.7326,758.3333 500,758.3333C504.5207,758.4122 508.2516,754.6813 508.3333,750C508.3333,745.3976 504.6024,741.6667 500,741.6667C406.3744,740.0324 331.7552,665.4132 333.3333,575L333.3333,404.8053L354.5851,403.5476C644.6299,384.2841 856.7917,313.3164 858.3333,225C858.3333,123.7478 619.5519,41.66669 325,41.66669C322.7397,41.6272 320.6768,42.54022 319.1687,44.04828L319.1465,44.08112L319.1074,44.10748C317.5994,45.61548 316.6667,47.69885 316.6667,50L316.6667,386.7639L289.395,388.2806C244.3691,390.5007 197.7496,391.6667 150,391.6667C145.4793,391.5878 141.7484,395.3187 141.6667,400C141.6667,404.6024 145.3976,408.3333 150,408.3333C162.1661,408.5457 174.2617,408.6713 186.2794,408.712C221.2059,408.8302 255.4744,408.2316 288.9027,406.9633L316.6667,405.7152L316.6667,575C316.6667,667.0475 242.0475,741.6667 150,741.6667C145.4793,741.5878 141.7484,745.3187 141.6667,750C141.6667,754.6024 145.3976,758.3333 150,758.3333z" />
<glyph unicode="&#x0449;" d="M75,581.25C78.45178,581.25 81.25,578.4518 81.25,575L81.25,487.5C81.25,397.2144 152.1537,323.4893 241.3161,318.9696L243.75,318.908L243.75,575C243.6908,578.3905 246.489,581.1887 250,581.25C253.4518,581.25 256.25,578.4518 256.25,575L256.25,319.0118L258.829,319.1199C349.4426,325.1423 420.298,398.8173 418.75,487.5L418.75,575C418.6908,578.3905 421.489,581.1887 425,581.25C428.4518,581.25 431.25,578.4518 431.25,575L431.25,487.5L431.25,400C431.25,324.9238 385.604,260.5088 320.5507,232.9935L316.1287,231.25L425,231.25C428.4518,231.25 431.25,228.4518 431.25,225C431.3092,221.6095 428.511,218.8113 425,218.75L250,218.75C248.3047,218.7204 246.7576,219.4052 245.6265,220.5362L245.6099,220.5609L245.5806,220.5806C244.4496,221.7116 243.75,223.2741 243.75,225C243.7204,226.6953 244.4052,228.2424 245.5362,229.3735L245.5608,229.3901L245.5806,229.4194C246.7116,230.5504 248.2741,231.25 250,231.25C344.796,232.9047 420.3479,308.4566 418.75,400L418.75,421.3713L417.0065,416.9493C389.4912,351.8959 325.0762,306.25 250,306.25C151.6756,304.5338 70.52724,385.6821 68.75,487.5L68.75,575C68.69082,578.3905 71.48904,581.1887 75,581.25z" />
<glyph horiz-adv-x="1000" glyph-name="ruSHE" unicode="&#x0429;" d="M150,758.3333C154.6024,758.3333 158.3333,754.6024 158.3333,750L158.3333,575C158.3333,392.1995 301.8915,242.9288 482.4179,233.7779L491.6667,233.544L491.6667,750C491.5878,754.5206 495.3187,758.2516 500,758.3333C504.6024,758.3333 508.3333,754.6024 508.3333,750L508.3333,233.6824L517.876,234.0822C701.3406,246.2758 844.8008,395.445 841.6667,575L841.6667,750C841.5878,754.5206 845.3187,758.2516 850,758.3333C854.6024,758.3333 858.3333,754.6024 858.3333,750L858.3333,575L858.3333,400C858.3333,245.389 760.4138,113.6484 623.207,63.41028L608.2026,58.33331L850,58.33331C854.6024,58.33331 858.3333,54.60236 858.3333,50C858.4122,45.47931 854.6813,41.74835 850,41.66669L500,41.66669C497.7397,41.6272 495.6768,42.54022 494.1687,44.04828L494.1465,44.08112L494.1074,44.10748C492.5994,45.61548 491.6667,47.69885 491.6667,50C491.6272,52.26038 492.5402,54.32324 494.0483,55.8313L494.0811,55.85352L494.1074,55.89252C495.6155,57.40057 497.6988,58.33331 500,58.33331C691.9326,61.68353 844.9019,214.6529 841.6667,400L841.6667,466.7974L836.5897,451.793C786.3516,314.5862 654.611,216.6667 500,216.6667C305.6116,213.2736 145.1803,373.7049 141.6667,575L141.6667,750C141.5878,754.5206 145.3187,758.2516 150,758.3333z" />
<glyph unicode="&#x0448;" d="M75,581.25C78.45178,581.25 81.25,578.4518 81.25,575L81.25,400C81.25,309.7144 152.1537,235.9893 241.3161,231.4696L243.75,231.408L243.75,575C243.6908,578.3905 246.489,581.1887 250,581.25C253.4518,581.25 256.25,578.4518 256.25,575L256.25,231.5118L258.829,231.6199C349.4426,237.6423 420.298,311.3173 418.75,400L418.75,575C418.6908,578.3905 421.489,581.1887 425,581.25C428.4518,581.25 431.25,578.4518 431.25,575L431.25,400C431.25,299.8984 350.1016,218.75 250,218.75C151.6756,217.0338 70.52724,298.1821 68.75,400L68.75,575C68.69082,578.3905 71.48904,581.1887 75,581.25z" />
<glyph horiz-adv-x="1000" glyph-name="ruSH" unicode="&#x0428;" d="M150,758.3333C154.6024,758.3333 158.3333,754.6024 158.3333,750L158.3333,400C158.3333,217.1995 301.8915,67.92877 482.4179,58.77789L491.6667,58.54401L491.6667,750C491.5878,754.5206 495.3187,758.2516 500,758.3333C504.6024,758.3333 508.3333,754.6024 508.3333,750L508.3333,58.68243L517.876,59.08215C701.3406,71.27576 844.8008,220.445 841.6667,400L841.6667,750C841.5878,754.5206 845.3187,758.2516 850,758.3333C854.6024,758.3333 858.3333,754.6024 858.3333,750L858.3333,400C858.3333,202.098 697.902,41.66669 500,41.66669C305.6116,38.27362 145.1803,198.7049 141.6667,400L141.6667,750C141.5878,754.5206 145.3187,758.2516 150,758.3333z" />
<glyph unicode="&#x0447;" d="M75,581.25C78.3905,581.3092 81.18871,578.511 81.25,575C81.25,481.8019 156.8019,406.25 250,406.25L418.75,406.25L418.75,575C418.6908,578.3905 421.489,581.1887 425,581.25C428.4518,581.25 431.25,578.4518 431.25,575L431.25,400L431.25,225C431.3092,221.6095 428.511,218.8113 425,218.75C421.5482,218.75 418.75,221.5482 418.75,225L418.75,393.75L250,393.75C151.6756,392.0338 70.52724,473.1821 68.75,575C68.75,578.4518 71.54822,581.25 75,581.25z" />
<glyph horiz-adv-x="1000" glyph-name="ruCH" unicode="&#x0427;" d="M150,758.3333C154.5207,758.4122 158.2516,754.6813 158.3333,750C158.3333,561.3027 311.3027,408.3333 500,408.3333L841.6667,408.3333L841.6667,750C841.5878,754.5206 845.3187,758.2516 850,758.3333C854.6024,758.3333 858.3333,754.6024 858.3333,750L858.3333,400L858.3333,50C858.4122,45.47931 854.6813,41.74835 850,41.66669C845.3976,41.66669 841.6667,45.39764 841.6667,50L841.6667,391.6667L500,391.6667C305.6116,388.2736 145.1803,548.7049 141.6667,750C141.6667,754.6024 145.3976,758.3333 150,758.3333z" />
<glyph unicode="&#x0446;" d="M75,581.25C78.45178,581.25 81.25,578.4518 81.25,575L81.25,487.5C81.25,394.3019 156.8019,318.75 250,318.75C344.796,320.4047 420.3479,395.9566 418.75,487.5L418.75,575C418.6908,578.3905 421.489,581.1887 425,581.25C428.4518,581.25 431.25,578.4518 431.25,575L431.25,487.5L431.25,400C431.25,324.9238 385.604,260.5088 320.5507,232.9935L316.1287,231.25L425,231.25C428.4518,231.25 431.25,228.4518 431.25,225C431.3092,221.6095 428.511,218.8113 425,218.75L250,218.75C248.3047,218.7204 246.7576,219.4052 245.6265,220.5362L245.6099,220.5609L245.5806,220.5806C244.4496,221.7116 243.75,223.2741 243.75,225C243.7204,226.6953 244.4052,228.2424 245.5362,229.3735L245.5608,229.3901L245.5806,229.4194C246.7116,230.5504 248.2741,231.25 250,231.25C344.796,232.9047 420.3479,308.4566 418.75,400L418.75,421.3713L417.0065,416.9493C389.4912,351.8959 325.0762,306.25 250,306.25C151.6756,304.5338 70.52724,385.6821 68.75,487.5L68.75,575C68.69082,578.3905 71.48904,581.1887 75,581.25z" />
<glyph horiz-adv-x="1000" glyph-name="ruCC" unicode="&#x0426;" d="M150,758.3333C154.6024,758.3333 158.3333,754.6024 158.3333,750L158.3333,575C158.3333,386.3027 311.3027,233.3333 500,233.3333C691.9326,236.6835 844.9019,389.6529 841.6667,575L841.6667,750C841.5878,754.5206 845.3187,758.2516 850,758.3333C854.6024,758.3333 858.3333,754.6024 858.3333,750L858.3333,575L858.3333,400C858.3333,245.389 760.4138,113.6484 623.207,63.41028L608.2026,58.33331L850,58.33331C854.6024,58.33331 858.3333,54.60236 858.3333,50C858.4122,45.47931 854.6813,41.74835 850,41.66669L500,41.66669C497.7397,41.6272 495.6768,42.54022 494.1687,44.04828L494.1465,44.08112L494.1074,44.10748C492.5994,45.61548 491.6667,47.69885 491.6667,50C491.6272,52.26038 492.5402,54.32324 494.0483,55.8313L494.0811,55.85352L494.1074,55.89252C495.6155,57.40057 497.6988,58.33331 500,58.33331C691.9326,61.68353 844.9019,214.6529 841.6667,400L841.6667,466.7974L836.5897,451.793C786.3516,314.5862 654.611,216.6667 500,216.6667C305.6116,213.2736 145.1803,373.7049 141.6667,575L141.6667,750C141.5878,754.5206 145.3187,758.2516 150,758.3333z" />
<glyph unicode="&#x0445;" d="M75,581.25C154.8885,582.6444 223.4383,529.3353 247.2891,454.6826L249.7434,446.3085L251.8986,453.8982C274.847,527.6794 343.6674,581.25 425,581.25C428.3905,581.3092 431.1887,578.511 431.25,575C431.25,571.5482 428.4518,568.75 425,568.75C330.204,567.0953 254.6521,491.5434 256.25,400C256.25,306.8019 331.8019,231.25 425,231.25C428.3905,231.3092 431.1887,228.511 431.25,225C431.25,221.5482 428.4518,218.75 425,218.75C345.1115,217.3555 276.5617,270.6647 252.7109,345.3174L250.2566,353.6915L248.1014,346.1018C225.153,272.3206 156.3326,218.75 75,218.75C71.6095,218.6908 68.81129,221.489 68.75,225C68.75,228.4518 71.54822,231.25 75,231.25C169.7959,232.9047 245.3479,308.4566 243.75,400C243.75,493.1981 168.1981,568.75 75,568.75C71.6095,568.6908 68.81129,571.489 68.75,575C68.75,578.4518 71.54822,581.25 75,581.25z" />
<glyph horiz-adv-x="1000" glyph-name="ruX" unicode="&#x0425;" d="M150,758.3333C314.0152,761.1962 453.8559,647.4303 495.6624,490.8951L499.5443,474.8058L502.9479,489.5531C542.7162,644.1201 683.0201,758.3333 850,758.3333C854.5207,758.4122 858.2516,754.6813 858.3333,750C858.3333,745.3976 854.6024,741.6667 850,741.6667C658.0674,738.3165 505.0981,585.3471 508.3333,400C508.3333,211.3027 661.3027,58.33331 850,58.33331C854.5207,58.41223 858.2516,54.68127 858.3333,50C858.3333,45.39764 854.6024,41.66669 850,41.66669C685.9847,38.80377 546.1441,152.5698 504.3376,309.1049L500.4557,325.1942L497.0521,310.4469C457.2838,155.8799 316.9799,41.66669 150,41.66669C145.4793,41.58777 141.7484,45.31873 141.6667,50C141.6667,54.60236 145.3976,58.33331 150,58.33331C341.9325,61.68353 494.9019,214.6529 491.6667,400C491.6667,588.6973 338.6973,741.6667 150,741.6667C145.4793,741.5878 141.7484,745.3187 141.6667,750C141.6667,754.6024 145.3976,758.3333 150,758.3333z" />
<glyph unicode="&#x0444;" d="M256.25,518.75L256.25,281.25L337.5,281.25C383.1425,282.0467 419.5193,318.4236 418.75,362.5L418.75,437.5C418.75,482.3731 382.3731,518.75 337.5,518.75L256.25,518.75zM162.5,518.75C116.8575,517.9533 80.48064,481.5764 81.25,437.5L81.25,362.5C81.25,317.6269 117.6269,281.25 162.5,281.25L243.75,281.25L243.75,518.75L162.5,518.75zM250,581.25C253.4518,581.25 256.25,578.4518 256.25,575L256.25,531.25L337.5,531.25C388.3574,532.1377 430.3307,490.1644 431.25,437.5L431.25,362.5C431.25,310.7233 389.2767,268.75 337.5,268.75L256.25,268.75L256.25,225C256.3092,221.6095 253.511,218.8113 250,218.75C246.5482,218.75 243.75,221.5482 243.75,225L243.75,268.75L162.5,268.75C111.6426,267.8623 69.66926,309.8356 68.75,362.5L68.75,437.5C68.75,489.2767 110.7233,531.25 162.5,531.25L243.75,531.25L243.75,575C243.6908,578.3905 246.489,581.1887 250,581.25z" />
<glyph horiz-adv-x="1000" glyph-name="ruF" unicode="&#x0424;" d="M508.3333,641.6666L508.3333,158.3333L675,158.3333C768.6256,159.9676 843.2448,234.5868 841.6667,325L841.6667,475C841.6667,567.0475 767.0475,641.6666 675,641.6666L508.3333,641.6666zM325,641.6666C231.3744,640.0325 156.7552,565.4132 158.3333,475L158.3333,325C158.3333,232.9525 232.9525,158.3333 325,158.3333L491.6667,158.3333L491.6667,641.6666L325,641.6666zM500,758.3333C504.6024,758.3333 508.3333,754.6024 508.3333,750L508.3333,658.3333L675,658.3333C774.4545,660.0693 856.5356,577.9882 858.3333,475L858.3333,325C858.3333,223.7478 776.2522,141.6667 675,141.6667L508.3333,141.6667L508.3333,50C508.4122,45.47931 504.6813,41.74835 500,41.66669C495.3976,41.66669 491.6667,45.39764 491.6667,50L491.6667,141.6667L325,141.6667C225.5455,139.9307 143.4643,222.0118 141.6667,325L141.6667,475C141.6667,576.2522 223.7478,658.3333 325,658.3333L491.6667,658.3333L491.6667,750C491.5878,754.5206 495.3187,758.2516 500,758.3333z" />
<glyph unicode="&#x0443;" d="M75,581.25C78.3905,581.3092 81.18871,578.511 81.25,575C81.25,481.8019 156.8019,406.25 250,406.25C344.796,407.9047 420.3479,483.4566 418.75,575C418.7204,576.6953 419.4052,578.2424 420.5362,579.3735L420.5608,579.3901L420.5806,579.4194C421.7116,580.5504 423.2741,581.25 425,581.25C426.6953,581.2796 428.2424,580.5948 429.3735,579.4638L429.3901,579.4392L429.4194,579.4194C430.5504,578.2884 431.25,576.7259 431.25,575L431.25,487.5C431.25,339.0735 310.9265,218.75 162.5,218.75L161.3358,218.9722L160.0969,218.9542C141.9323,219.5502 123.5752,225.3253 107.3951,236.6547C104.6026,238.6835 103.9835,242.5921 106.0124,245.3846C106.9849,246.7736 108.4483,247.6227 110.0281,247.873C111.608,248.1232 113.3042,247.7744 114.7424,246.7674C128.3561,236.8765 144.01,231.8264 159.6504,231.2917L162.5,231.331L162.5,231.25C306.4494,233.7626 421.1764,348.4897 418.75,487.5L418.75,508.8713L417.0065,504.4493C389.4912,439.396 325.0762,393.75 250,393.75C151.6756,392.0338 70.52724,473.1821 68.75,575C68.75,578.4518 71.54822,581.25 75,581.25z" />
<glyph horiz-adv-x="1000" glyph-name="ruU" unicode="&#x0423;" d="M150,758.3333C154.5207,758.4122 158.2516,754.6813 158.3333,750C158.3333,561.3027 311.3027,408.3333 500,408.3333C691.9326,411.6835 844.9019,564.6529 841.6667,750C841.6272,752.2603 842.5402,754.3232 844.0483,755.8313L844.0811,755.8535L844.1075,755.8926C845.6155,757.4006 847.6989,758.3333 850,758.3333C852.2604,758.3728 854.3232,757.4598 855.8313,755.9517L855.8535,755.9188L855.8925,755.8926C857.4006,754.3845 858.3333,752.3011 858.3333,750L858.3333,575C858.3333,280.4481 619.5519,41.66669 325,41.66669L323.0389,42.04108L320.3007,42.06604C284.7787,43.23157 248.8803,54.52502 217.2394,76.68024C213.516,79.38544 212.6906,84.59686 215.3958,88.32025C216.6924,90.17212 218.6436,91.30432 220.7501,91.63794C222.8565,91.97156 225.1182,91.50659 227.0358,90.16382C254.9613,69.87476 287.0718,59.51556 319.1547,58.41901L325,58.35956L325,58.33331C615.2394,63.39948 846.559,294.7191 841.6667,575L841.6667,641.7974L836.5897,626.793C786.3516,489.5862 654.611,391.6667 500,391.6667C305.6116,388.2736 145.1803,548.7049 141.6667,750C141.6667,754.6024 145.3976,758.3333 150,758.3333z" />
<glyph unicode="&#x0442;" d="M75,581.25C154.8885,582.6444 223.4383,529.3353 247.2891,454.6826L249.7434,446.3085L251.8986,453.8982C274.847,527.6794 343.6674,581.25 425,581.25C428.3905,581.3092 431.1887,578.511 431.25,575C431.25,571.5482 428.4518,568.75 425,568.75C330.204,567.0953 254.6521,491.5434 256.25,400L256.25,225C256.25,221.5482 253.4518,218.75 250,218.75C246.6095,218.6908 243.8113,221.489 243.75,225L243.75,400C243.75,493.1981 168.1981,568.75 75,568.75C71.6095,568.6908 68.81129,571.489 68.75,575C68.75,578.4518 71.54822,581.25 75,581.25z" />
<glyph horiz-adv-x="1000" glyph-name="ruT" unicode="&#x0422;" d="M150,758.3333C314.0152,761.1962 453.8559,647.4303 495.6624,490.8951L499.5443,474.8058L502.9479,489.5531C542.7162,644.1201 683.0201,758.3333 850,758.3333C854.5207,758.4122 858.2516,754.6813 858.3333,750C858.3333,745.3976 854.6024,741.6667 850,741.6667C658.0674,738.3165 505.0981,585.3471 508.3333,400L508.3333,50C508.3333,45.39764 504.6024,41.66669 500,41.66669C495.4793,41.58777 491.7484,45.31873 491.6667,50L491.6667,400C491.6667,588.6973 338.6973,741.6667 150,741.6667C145.4793,741.5878 141.7484,745.3187 141.6667,750C141.6667,754.6024 145.3976,758.3333 150,758.3333z" />
<glyph unicode="&#x0441;" d="M162.5,581.25L337.5,581.25C388.3574,582.1377 430.3307,540.1644 431.25,487.5C431.25,484.0482 428.4518,481.25 425,481.25C421.6095,481.1908 418.8113,483.989 418.75,487.5C418.75,532.3732 382.3731,568.75 337.5,568.75L162.5,568.75C116.8575,567.9533 80.48064,531.5764 81.25,487.5L81.25,312.5C81.25,267.6269 117.6269,231.25 162.5,231.25L337.5,231.25C383.1425,232.0467 419.5193,268.4236 418.75,312.5C418.75,315.9518 421.5482,318.75 425,318.75C428.3905,318.8092 431.1887,316.011 431.25,312.5C431.25,260.7233 389.2767,218.75 337.5,218.75L162.5,218.75C111.6426,217.8623 69.66926,259.8356 68.75,312.5L68.75,487.5C68.75,539.2767 110.7233,581.25 162.5,581.25z" />
<glyph horiz-adv-x="1000" glyph-name="ruS" unicode="&#x0421;" d="M325,758.3333L675,758.3333C774.4545,760.0693 856.5356,677.9882 858.3333,575C858.3333,570.3976 854.6024,566.6666 850,566.6666C845.4793,566.5878 841.7484,570.3187 841.6667,575C841.6667,667.0475 767.0475,741.6667 675,741.6667L325,741.6667C231.3744,740.0324 156.7552,665.4132 158.3333,575L158.3333,225C158.3333,132.9525 232.9525,58.33331 325,58.33331L675,58.33331C768.6256,59.96759 843.2448,134.5868 841.6667,225C841.6667,229.6024 845.3976,233.3333 850,233.3333C854.5207,233.4122 858.2516,229.6813 858.3333,225C858.3333,123.7478 776.2522,41.66669 675,41.66669L325,41.66669C225.5455,39.93066 143.4643,122.0118 141.6667,225L141.6667,575C141.6667,676.2522 223.7478,758.3333 325,758.3333z" />
<glyph unicode="&#x0440;" d="M162.5,568.75C116.8575,567.9533 80.48064,531.5764 81.25,487.5L81.25,406.4279L110.2739,407.2542C284.2068,414.1438 419.4299,448.55 418.75,487.5C418.75,532.3732 304.023,568.75 162.5,568.75zM162.5,581.25C309.9778,583.8242 430.3013,541.851 431.25,487.5C431.25,438.9594 291.0657,399.0349 111.4245,394.234L81.25,393.833L81.25,225C81.30918,221.6095 78.51096,218.8113 75,218.75C71.54822,218.75 68.75,221.5482 68.75,225L68.75,400L68.75,487.5C68.75,539.2767 110.7233,581.25 162.5,581.25z" />
<glyph horiz-adv-x="1000" glyph-name="ruR" unicode="&#x0420;" d="M325,741.6667C231.3744,740.0324 156.7552,665.4132 158.3333,575L158.3333,408.5257L185.7284,409.1581C552.5373,419.7013 843.1099,492.3136 841.6667,575C841.6667,667.0475 610.3471,741.6667 325,741.6667zM352.2766,758.5588C632.3878,758.2886 856.5349,678.0374 858.3333,575C858.3333,476.9119 560.7128,396.8155 186.4507,391.9052L158.3333,391.7212L158.3333,50C158.4122,45.47931 154.6813,41.74835 150,41.66669C145.3976,41.66669 141.6667,45.39764 141.6667,50L141.6667,400L141.6667,575C141.6667,676.2522 223.7478,758.3333 325,758.3333C334.1467,758.493 343.2408,758.5675 352.2766,758.5588z" />
<glyph unicode="&#x043F;" d="M162.5,581.25L337.5,581.25C388.3574,582.1377 430.3307,540.1644 431.25,487.5L431.25,225C431.3092,221.6095 428.511,218.8113 425,218.75C421.5482,218.75 418.75,221.5482 418.75,225L418.75,487.5C418.75,532.3732 382.3731,568.75 337.5,568.75L162.5,568.75C116.8575,567.9533 80.48064,531.5764 81.25,487.5L81.25,225C81.30918,221.6095 78.51096,218.8113 75,218.75C71.54822,218.75 68.75,221.5482 68.75,225L68.75,487.5C68.75,539.2767 110.7233,581.25 162.5,581.25z" />
<glyph horiz-adv-x="1000" glyph-name="ruP" unicode="&#x041F;" d="M325,758.3333L675,758.3333C774.4545,760.0693 856.5356,677.9882 858.3333,575L858.3333,50C858.4122,45.47931 854.6813,41.74835 850,41.66669C845.3976,41.66669 841.6667,45.39764 841.6667,50L841.6667,575C841.6667,667.0475 767.0475,741.6667 675,741.6667L325,741.6667C231.3744,740.0324 156.7552,665.4132 158.3333,575L158.3333,50C158.4122,45.47931 154.6813,41.74835 150,41.66669C145.3976,41.66669 141.6667,45.39764 141.6667,50L141.6667,575C141.6667,676.2522 223.7478,758.3333 325,758.3333z" />
<glyph unicode="&#x043E;" d="M162.5,568.75C116.8575,567.9533 80.48064,531.5764 81.25,487.5L81.25,312.5C81.25,267.6269 117.6269,231.25 162.5,231.25L337.5,231.25C383.1425,232.0467 419.5193,268.4236 418.75,312.5L418.75,487.5C418.75,532.3732 382.3731,568.75 337.5,568.75L162.5,568.75zM162.5,581.25L337.5,581.25C388.3574,582.1377 430.3307,540.1644 431.25,487.5L431.25,312.5C431.25,260.7233 389.2767,218.75 337.5,218.75L162.5,218.75C111.6426,217.8623 69.66926,259.8356 68.75,312.5L68.75,487.5C68.75,539.2767 110.7233,581.25 162.5,581.25z" />
<glyph horiz-adv-x="1000" glyph-name="ruO" unicode="&#x041E;" d="M325,741.6667C231.3744,740.0324 156.7552,665.4132 158.3333,575L158.3333,225C158.3333,132.9525 232.9525,58.33331 325,58.33331L675,58.33331C768.6256,59.96759 843.2448,134.5868 841.6667,225L841.6667,575C841.6667,667.0475 767.0475,741.6667 675,741.6667L325,741.6667zM325,758.3333L675,758.3333C774.4545,760.0693 856.5356,677.9882 858.3333,575L858.3333,225C858.3333,123.7478 776.2522,41.66669 675,41.66669L325,41.66669C225.5455,39.93066 143.4643,122.0118 141.6667,225L141.6667,575C141.6667,676.2522 223.7478,758.3333 325,758.3333z" />
<glyph unicode="&#x043D;" d="M75,581.25C78.45178,581.25 81.25,578.4518 81.25,575L81.25,406.25L418.75,406.25L418.75,575C418.6908,578.3905 421.489,581.1887 425,581.25C428.4518,581.25 431.25,578.4518 431.25,575L431.25,400L431.25,225C431.3092,221.6095 428.511,218.8113 425,218.75C421.5482,218.75 418.75,221.5482 418.75,225L418.75,393.75L81.25,393.75L81.25,225C81.30918,221.6095 78.51096,218.8113 75,218.75C71.54822,218.75 68.75,221.5482 68.75,225L68.75,400L68.75,575C68.69082,578.3905 71.48904,581.1887 75,581.25z" />
<glyph horiz-adv-x="1000" glyph-name="ruN" unicode="&#x041D;" d="M150,758.3333C154.6024,758.3333 158.3333,754.6024 158.3333,750L158.3333,408.3333L841.6667,408.3333L841.6667,750C841.5878,754.5206 845.3187,758.2516 850,758.3333C854.6024,758.3333 858.3333,754.6024 858.3333,750L858.3333,400L858.3333,50C858.4122,45.47931 854.6813,41.74835 850,41.66669C845.3976,41.66669 841.6667,45.39764 841.6667,50L841.6667,391.6667L158.3333,391.6667L158.3333,50C158.4122,45.47931 154.6813,41.74835 150,41.66669C145.3976,41.66669 141.6667,45.39764 141.6667,50L141.6667,400L141.6667,750C141.5878,754.5206 145.3187,758.2516 150,758.3333z" />
<glyph unicode="&#x043C;" d="M75,581.25C156.5382,582.6732 227.0492,469.3464 249.1738,314.6996L249.3634,313.2422L249.4562,314.0324C269.5716,467.7007 340.5392,581.25 425,581.25C426.6953,581.2796 428.2424,580.5948 429.3735,579.4638L429.3901,579.4392L429.4194,579.4194C430.5504,578.2884 431.25,576.7259 431.25,575L431.25,225C431.3092,221.6095 428.511,218.8113 425,218.75C421.5482,218.75 418.75,221.5482 418.75,225L418.75,568.3323L416.0179,568.1498C323.8725,557.4136 253.0682,407.2837 256.25,225C256.25,221.5482 253.4518,218.75 250,218.75C246.6095,218.6908 243.8113,221.489 243.75,225C243.75,408.9151 172.8463,559.096 83.68385,568.3027L81.25,568.4281L81.25,225C81.30918,221.6095 78.51096,218.8113 75,218.75C71.54822,218.75 68.75,221.5482 68.75,225L68.75,575C68.72041,576.6953 69.40517,578.2424 70.53619,579.3735L70.56082,579.3901L70.58058,579.4194C71.71161,580.5504 73.27411,581.25 75,581.25z" />
<glyph horiz-adv-x="1000" glyph-name="ruM" unicode="&#x041C;" d="M150,758.3333C317.1385,761.2507 460.861,518.8115 498.7936,193.8479L498.9285,192.5519L498.9467,192.7538C532.36,515.5294 676.8357,758.3333 850,758.3333C852.2604,758.3728 854.3232,757.4598 855.8313,755.9517L855.8535,755.9188L855.8925,755.8926C857.4006,754.3845 858.3333,752.3011 858.3333,750L858.3333,50C858.4122,45.47931 854.6813,41.74835 850,41.66669C845.3976,41.66669 841.6667,45.39764 841.6667,50L841.6667,741.3167L840.8765,741.2834C649.9531,728.5636 501.8283,422.6725 508.3333,50C508.3333,45.39764 504.6024,41.66669 500,41.66669C495.4793,41.58777 491.7484,45.31873 491.6667,50C491.6667,426.0283 343.4402,731.9718 158.8186,741.4408L158.3333,741.4532L158.3333,50C158.4122,45.47931 154.6813,41.74835 150,41.66669C145.3976,41.66669 141.6667,45.39764 141.6667,50L141.6667,750C141.6272,752.2603 142.5402,754.3232 144.0483,755.8313L144.0811,755.8535L144.1075,755.8926C145.6155,757.4006 147.6988,758.3333 150,758.3333z" />
<glyph unicode="&#x043B;" d="M250,581.25C253.3905,581.3092 256.1887,578.511 256.25,575C256.25,385.1521 331.8019,231.25 425,231.25C428.3905,231.3092 431.1887,228.511 431.25,225C431.25,221.5482 428.4518,218.75 425,218.75C343.4618,217.3267 272.9508,330.6536 250.8262,485.3004L250.6366,486.7578L250.5438,485.9676C230.4284,332.2993 159.4607,218.75 75,218.75C71.6095,218.6908 68.81129,221.489 68.75,225C68.75,228.4518 71.54822,231.25 75,231.25C171.4825,232.9341 247.0344,386.8362 243.75,575C243.75,578.4518 246.5482,581.25 250,581.25z" />
<glyph horiz-adv-x="1000" glyph-name="ruL" unicode="&#x041B;" d="M500,758.3333C504.5207,758.4122 508.2516,754.6813 508.3333,750C508.3333,368.0031 661.3027,58.33331 850,58.33331C854.5207,58.41223 858.2516,54.68127 858.3333,50C858.3333,45.39764 854.6024,41.66669 850,41.66669C682.8616,38.74927 539.139,281.1885 501.2064,606.1521L501.0715,607.4481L501.0533,607.2461C467.64,284.4706 323.1643,41.66669 150,41.66669C145.4793,41.58777 141.7484,45.31873 141.6667,50C141.6667,54.60236 145.3976,58.33331 150,58.33331C345.3056,61.74243 498.2749,371.4121 491.6667,750C491.6667,754.6024 495.3976,758.3333 500,758.3333z" />
<glyph unicode="&#x043A;" d="M75,581.25C78.45178,581.25 81.25,578.4518 81.25,575L81.25,406.4333L92.83178,406.773C275.8834,414.3271 420.2694,487.9511 418.75,575C418.75,578.4518 421.5482,581.25 425,581.25C428.3905,581.3092 431.1887,578.511 431.25,575C431.25,493.6674 325.956,424.847 180.9379,401.8987L172.4607,400.6739L180.1122,399.6565C324.2129,378.4362 429.7821,309.0973 431.25,225C431.25,221.5482 428.4518,218.75 425,218.75C421.6095,218.6908 418.8113,221.489 418.75,225C418.75,315.2856 274.3165,389.0108 92.68933,393.5304L81.25,393.6724L81.25,225C81.30918,221.6095 78.51096,218.8113 75,218.75C71.54822,218.75 68.75,221.5482 68.75,225L68.75,400L68.75,575C68.69082,578.3905 71.48904,581.1887 75,581.25z" />
<glyph horiz-adv-x="1000" glyph-name="ruK" unicode="&#x041A;" d="M150,758.3333C154.6024,758.3333 158.3333,754.6024 158.3333,750L158.3333,408.5784L185.8816,409.3885C554.2222,424.6454 844.7438,573.7126 841.6667,750C841.6667,754.6024 845.3976,758.3333 850,758.3333C854.5207,758.4122 858.2516,754.6813 858.3333,750C858.3333,583.0201 632.5629,442.7162 327.0235,402.9479L311.784,401.1686L325.6106,399.7281C629.0776,363.8846 855.319,222.6888 858.3333,50C858.3333,45.39764 854.6024,41.66669 850,41.66669C845.4793,41.58777 841.7484,45.31873 841.6667,50C841.6667,232.8005 551.0489,382.0712 185.5931,391.2221L158.3333,391.5626L158.3333,50C158.4122,45.47931 154.6813,41.74835 150,41.66669C145.3976,41.66669 141.6667,45.39764 141.6667,50L141.6667,400L141.6667,750C141.5878,754.5206 145.3187,758.2516 150,758.3333z" />
</font>
</defs>
</svg>
