<?xml version="1.0" standalone="no"?>
<!DOCTYPE svg PUBLIC "-//W3C//DTD SVG 1.1//EN" "http://www.w3.org/Graphics/SVG/1.1/DTD/svg11.dtd">
<svg xmlns="http://www.w3.org/2000/svg" xmlns:xlink="http://www.w3.org/1999/xlink" version="1.1">
<metadata>Wholemy</metadata>
<defs>
<font id="Wholemy100" horiz-adv-x="500" >
<font-face font-family="Wholemy" font-weight="100" font-stretch="normal" units-per-em="1000" ascent="800" descent="-200" x-height="600" cap-height="800" panose-1="2 0 5 3 0 0 0 0 0 0" bbox="0 -200 1000 1000" underline-thickness="0" underline-position="0" unicode-range="U+0020-2265"/>
<missing-glyph />
<glyph horiz-adv-x="1000" glyph-name="Wholemy" unicode="&#x0057;&#x0068;&#x006F;&#x006C;&#x0065;&#x006D;&#x0079;" d="M500, -16.25 C486.8832, -16.25 476.25, -26.88324 476.25, -40 C476.25, -53.11676 486.8832, -63.75 500, -63.75 C513.1168, -63.75 523.75, -53.11676 523.75, -40 C523.75, -26.88324 513.1168, -16.25 500, -16.25zM500, -3.75 C520.0203, -3.75 536.25, -19.97968 536.25, -40 C536.25, -60.02032 520.0203, -76.25 500, -76.25 C479.9797, -76.25 463.75, -60.02032 463.75, -40 C463.75, -19.97968 479.9797, -3.75 500, -3.75zM618.88, -0.02001953 C605.7632, -0.02001953 595.13, -10.65326 595.13, -23.77002 C595.13, -36.88678 605.7632, -47.52002 618.88, -47.52002 C631.9968, -47.52002 642.63, -36.88678 642.63, -23.77002 C642.63, -10.65326 631.9968, -0.02001953 618.88, -0.02001953zM381.12, -0.02001953 C368.0032, -0.02001953 357.37, -10.65326 357.37, -23.77002 C357.37, -36.88678 368.0032, -47.52002 381.12, -47.52002 C394.2368, -47.52002 404.87, -36.88678 404.87, -23.77002 C404.87, -10.65326 394.2368, -0.02001953 381.12, -0.02001953zM618.88, 12.47998 C638.9003, 12.47998 655.13, -3.749695 655.13, -23.77002 C655.13, -43.79034 638.9003, -60.02002 618.88, -60.02002 C598.8597, -60.02002 582.63, -43.79034 582.63, -23.77002 C582.63, -3.749695 598.8597, 12.47998 618.88, 12.47998zM381.12, 12.47998 C401.1403, 12.47998 417.37, -3.749695 417.37, -23.77002 C417.37, -43.79034 401.1403, -60.02002 381.12, -60.02002 C361.0997, -60.02002 344.87, -43.79034 344.87, -23.77002 C344.87, -3.749695 361.0997, 12.47998 381.12, 12.47998zM728.915, 47.91998 C715.7982, 47.91998 705.165, 37.28674 705.165, 24.16998 C705.165, 11.05322 715.7982, 0.4199829 728.915, 0.4199829 C742.0317, 0.4199829 752.665, 11.05322 752.665, 24.16998 C752.665, 37.28674 742.0317, 47.91998 728.915, 47.91998zM271.085, 47.91998 C257.9682, 47.91998 247.335, 37.28674 247.335, 24.16998 C247.335, 11.05322 257.9682, 0.4199829 271.085, 0.4199829 C284.2018, 0.4199829 294.835, 11.05322 294.835, 24.16998 C294.835, 37.28674 284.2018, 47.91998 271.085, 47.91998zM728.915, 60.41998 C748.9353, 60.41998 765.165, 44.19031 765.165, 24.16998 C765.165, 4.149658 748.9353, -12.08002 728.915, -12.08002 C708.8947, -12.08002 692.665, 4.149658 692.665, 24.16998 C692.665, 44.19031 708.8947, 60.41998 728.915, 60.41998zM271.085, 60.41998 C291.1053, 60.41998 307.335, 44.19031 307.335, 24.16998 C307.335, 4.149658 291.1053, -12.08002 271.085, -12.08002 C251.0647, -12.08002 234.835, 4.149658 234.835, 24.16998 C234.835, 44.19031 251.0647, 60.41998 271.085, 60.41998zM623.2, 150.25 C604.5604, 150.25 589.45, 135.1396 589.45, 116.5 C589.45, 97.86041 604.5604, 82.75 623.2, 82.75 C641.8396, 82.75 656.95, 97.86041 656.95, 116.5 C656.95, 135.1396 641.8396, 150.25 623.2, 150.25zM376.8, 150.25 C358.1604, 150.25 343.05, 135.1396 343.05, 116.5 C343.05, 97.86041 358.1604, 82.75 376.8, 82.75 C395.4396, 82.75 410.55, 97.86041 410.55, 116.5 C410.55, 135.1396 395.4396, 150.25 376.8, 150.25zM623.2, 162.75 C648.7432, 162.75 669.45, 142.0432 669.45, 116.5 C669.45, 90.95685 648.7432, 70.25 623.2, 70.25 C597.6569, 70.25 576.95, 90.95685 576.95, 116.5 C576.95, 142.0432 597.6569, 162.75 623.2, 162.75zM376.8, 162.75 C402.3432, 162.75 423.05, 142.0432 423.05, 116.5 C423.05, 90.95685 402.3432, 70.25 376.8, 70.25 C351.2568, 70.25 330.55, 90.95685 330.55, 116.5 C330.55, 142.0432 351.2568, 162.75 376.8, 162.75zM875.83, 194.835 C862.7133, 194.835 852.08, 184.2018 852.08, 171.085 C852.08, 157.9683 862.7133, 147.335 875.83, 147.335 C888.9468, 147.335 899.58, 157.9683 899.58, 171.085 C899.58, 184.2018 888.9468, 194.835 875.83, 194.835zM124.17, 194.835 C111.0532, 194.835 100.42, 184.2018 100.42, 171.085 C100.42, 157.9683 111.0532, 147.335 124.17, 147.335 C137.2868, 147.335 147.92, 157.9683 147.92, 171.085 C147.92, 184.2018 137.2868, 194.835 124.17, 194.835zM875.83, 207.335 C895.8503, 207.335 912.08, 191.1053 912.08, 171.085 C912.08, 151.0647 895.8503, 134.835 875.83, 134.835 C855.8097, 134.835 839.58, 151.0647 839.58, 171.085 C839.58, 191.1053 855.8097, 207.335 875.83, 207.335zM124.17, 207.335 C144.1903, 207.335 160.42, 191.1053 160.42, 171.085 C160.42, 151.0647 144.1903, 134.835 124.17, 134.835 C104.1497, 134.835 87.92, 151.0647 87.92, 171.085 C87.92, 191.1053 104.1497, 207.335 124.17, 207.335zM500, 253.25 C481.3604, 253.25 466.25, 238.1396 466.25, 219.5 C466.25, 200.8604 481.3604, 185.75 500, 185.75 C518.6396, 185.75 533.75, 200.8604 533.75, 219.5 C533.75, 238.1396 518.6396, 253.25 500, 253.25zM500, 265.75 C525.5432, 265.75 546.25, 245.0432 546.25, 219.5 C546.25, 193.9568 525.5432, 173.25 500, 173.25 C474.4568, 173.25 453.75, 193.9568 453.75, 219.5 C453.75, 245.0432 474.4568, 265.75 500, 265.75zM923.77, 304.87 C910.6533, 304.87 900.02, 294.2368 900.02, 281.12 C900.02, 268.0032 910.6533, 257.37 923.77, 257.37 C936.8868, 257.37 947.52, 268.0032 947.52, 281.12 C947.52, 294.2368 936.8868, 304.87 923.77, 304.87zM76.23, 304.87 C63.11324, 304.87 52.48, 294.2368 52.48, 281.12 C52.48, 268.0032 63.11324, 257.37 76.23, 257.37 C89.34676, 257.37 99.98, 268.0032 99.98, 281.12 C99.98, 294.2368 89.34676, 304.87 76.23, 304.87zM783.5, 310.55 C764.8604, 310.55 749.75, 295.4396 749.75, 276.8 C749.75, 258.1604 764.8604, 243.05 783.5, 243.05 C802.1396, 243.05 817.25, 258.1604 817.25, 276.8 C817.25, 295.4396 802.1396, 310.55 783.5, 310.55zM216.5, 310.55 C197.8604, 310.55 182.75, 295.4396 182.75, 276.8 C182.75, 258.1604 197.8604, 243.05 216.5, 243.05 C235.1396, 243.05 250.25, 258.1604 250.25, 276.8 C250.25, 295.4396 235.1396, 310.55 216.5, 310.55zM923.77, 317.37 C943.7903, 317.37 960.02, 301.1403 960.02, 281.12 C960.02, 261.0997 943.7903, 244.87 923.77, 244.87 C903.7497, 244.87 887.52, 261.0997 887.52, 281.12 C887.52, 301.1403 903.7497, 317.37 923.77, 317.37zM76.23, 317.37 C96.25032, 317.37 112.48, 301.1403 112.48, 281.12 C112.48, 261.0997 96.25032, 244.87 76.23, 244.87 C56.20968, 244.87 39.98, 261.0997 39.98, 281.12 C39.98, 301.1403 56.20968, 317.37 76.23, 317.37zM783.5, 323.05 C809.0432, 323.05 829.75, 302.3431 829.75, 276.8 C829.75, 251.2568 809.0432, 230.55 783.5, 230.55 C757.9568, 230.55 737.25, 251.2568 737.25, 276.8 C737.25, 302.3431 757.9568, 323.05 783.5, 323.05zM216.5, 323.05 C242.0432, 323.05 262.75, 302.3431 262.75, 276.8 C262.75, 251.2568 242.0432, 230.55 216.5, 230.55 C190.9568, 230.55 170.25, 251.2568 170.25, 276.8 C170.25, 302.3431 190.9568, 323.05 216.5, 323.05zM940, 423.75 C926.8832, 423.75 916.25, 413.1168 916.25, 400 C916.25, 386.8832 926.8832, 376.25 940, 376.25 C953.1168, 376.25 963.75, 386.8832 963.75, 400 C963.75, 413.1168 953.1168, 423.75 940, 423.75zM60, 423.75 C46.88324, 423.75 36.25, 413.1168 36.25, 400 C36.25, 386.8832 46.88324, 376.25 60, 376.25 C73.11676, 376.25 83.75, 386.8832 83.75, 400 C83.75, 413.1168 73.11676, 423.75 60, 423.75zM680.5, 433.75 C661.8604, 433.75 646.75, 418.6396 646.75, 400 C646.75, 381.3604 661.8604, 366.25 680.5, 366.25 C699.1396, 366.25 714.25, 381.3604 714.25, 400 C714.25, 418.6396 699.1396, 433.75 680.5, 433.75zM319.5, 433.75 C300.8604, 433.75 285.75, 418.6396 285.75, 400 C285.75, 381.3604 300.8604, 366.25 319.5, 366.25 C338.1396, 366.25 353.25, 381.3604 353.25, 400 C353.25, 418.6396 338.1396, 433.75 319.5, 433.75zM940, 436.25 C960.0203, 436.25 976.25, 420.0203 976.25, 400 C976.25, 379.9797 960.0203, 363.75 940, 363.75 C919.9797, 363.75 903.75, 379.9797 903.75, 400 C903.75, 420.0203 919.9797, 436.25 940, 436.25zM60, 436.25 C80.02032, 436.25 96.25, 420.0203 96.25, 400 C96.25, 379.9797 80.02032, 363.75 60, 363.75 C39.97968, 363.75 23.75, 379.9797 23.75, 400 C23.75, 420.0203 39.97968, 436.25 60, 436.25zM500, 443.75 C475.8376, 443.75 456.25, 424.1624 456.25, 400 C456.25, 375.8375 475.8376, 356.25 500, 356.25 C524.1625, 356.25 543.75, 375.8375 543.75, 400 C543.75, 424.1624 524.1625, 443.75 500, 443.75zM680.5, 446.25 C706.0432, 446.25 726.75, 425.5432 726.75, 400 C726.75, 374.4568 706.0432, 353.75 680.5, 353.75 C654.9568, 353.75 634.25, 374.4568 634.25, 400 C634.25, 425.5432 654.9568, 446.25 680.5, 446.25zM319.5, 446.25 C345.0432, 446.25 365.75, 425.5432 365.75, 400 C365.75, 374.4568 345.0432, 353.75 319.5, 353.75 C293.9568, 353.75 273.25, 374.4568 273.25, 400 C273.25, 425.5432 293.9568, 446.25 319.5, 446.25zM500, 456.25 C531.066, 456.25 556.25, 431.066 556.25, 400 C556.25, 368.934 531.066, 343.75 500, 343.75 C468.934, 343.75 443.75, 368.934 443.75, 400 C443.75, 431.066 468.934, 456.25 500, 456.25zM923.77, 542.63 C910.6533, 542.63 900.02, 531.9968 900.02, 518.88 C900.02, 505.7632 910.6533, 495.13 923.77, 495.13 C936.8868, 495.13 947.52, 505.7632 947.52, 518.88 C947.52, 531.9968 936.8868, 542.63 923.77, 542.63zM76.23, 542.63 C63.11324, 542.63 52.48, 531.9968 52.48, 518.88 C52.48, 505.7632 63.11324, 495.13 76.23, 495.13 C89.34676, 495.13 99.98, 505.7632 99.98, 518.88 C99.98, 531.9968 89.34676, 542.63 76.23, 542.63zM923.77, 555.13 C943.7903, 555.13 960.02, 538.9003 960.02, 518.88 C960.02, 498.8597 943.7903, 482.63 923.77, 482.63 C903.7497, 482.63 887.52, 498.8597 887.52, 518.88 C887.52, 538.9003 903.7497, 555.13 923.77, 555.13zM76.23, 555.13 C96.25032, 555.13 112.48, 538.9003 112.48, 518.88 C112.48, 498.8597 96.25032, 482.63 76.23, 482.63 C56.20968, 482.63 39.98, 498.8597 39.98, 518.88 C39.98, 538.9003 56.20968, 555.13 76.23, 555.13zM783.5, 556.95 C764.8604, 556.95 749.75, 541.8396 749.75, 523.2 C749.75, 504.5604 764.8604, 489.45 783.5, 489.45 C802.1396, 489.45 817.25, 504.5604 817.25, 523.2 C817.25, 541.8396 802.1396, 556.95 783.5, 556.95zM216.5, 556.95 C197.8604, 556.95 182.75, 541.8396 182.75, 523.2 C182.75, 504.5604 197.8604, 489.45 216.5, 489.45 C235.1396, 489.45 250.25, 504.5604 250.25, 523.2 C250.25, 541.8396 235.1396, 556.95 216.5, 556.95zM783.5, 569.45 C809.0432, 569.45 829.75, 548.7432 829.75, 523.2 C829.75, 497.6568 809.0432, 476.95 783.5, 476.95 C757.9568, 476.95 737.25, 497.6568 737.25, 523.2 C737.25, 548.7432 757.9568, 569.45 783.5, 569.45zM216.5, 569.45 C242.0432, 569.45 262.75, 548.7432 262.75, 523.2 C262.75, 497.6568 242.0432, 476.95 216.5, 476.95 C190.9568, 476.95 170.25, 497.6568 170.25, 523.2 C170.25, 548.7432 190.9568, 569.45 216.5, 569.45zM500, 614.25 C481.3604, 614.25 466.25, 599.1396 466.25, 580.5 C466.25, 561.8604 481.3604, 546.75 500, 546.75 C518.6396, 546.75 533.75, 561.8604 533.75, 580.5 C533.75, 599.1396 518.6396, 614.25 500, 614.25zM500, 626.75 C525.5432, 626.75 546.25, 606.0432 546.25, 580.5 C546.25, 554.9568 525.5432, 534.25 500, 534.25 C474.4568, 534.25 453.75, 554.9568 453.75, 580.5 C453.75, 606.0432 474.4568, 626.75 500, 626.75zM875.83, 652.665 C862.7133, 652.665 852.08, 642.0317 852.08, 628.915 C852.08, 615.7982 862.7133, 605.165 875.83, 605.165 C888.9468, 605.165 899.58, 615.7982 899.58, 628.915 C899.58, 642.0317 888.9468, 652.665 875.83, 652.665zM124.17, 652.665 C111.0532, 652.665 100.42, 642.0317 100.42, 628.915 C100.42, 615.7982 111.0532, 605.165 124.17, 605.165 C137.2868, 605.165 147.92, 615.7982 147.92, 628.915 C147.92, 642.0317 137.2868, 652.665 124.17, 652.665zM875.83, 665.165 C895.8503, 665.165 912.08, 648.9353 912.08, 628.915 C912.08, 608.8947 895.8503, 592.665 875.83, 592.665 C855.8097, 592.665 839.58, 608.8947 839.58, 628.915 C839.58, 648.9353 855.8097, 665.165 875.83, 665.165zM124.17, 665.165 C144.1903, 665.165 160.42, 648.9353 160.42, 628.915 C160.42, 608.8947 144.1903, 592.665 124.17, 592.665 C104.1497, 592.665 87.92, 608.8947 87.92, 628.915 C87.92, 648.9353 104.1497, 665.165 124.17, 665.165zM623.2, 717.25 C604.5604, 717.25 589.45, 702.1396 589.45, 683.5 C589.45, 664.8604 604.5604, 649.75 623.2, 649.75 C641.8396, 649.75 656.95, 664.8604 656.95, 683.5 C656.95, 702.1396 641.8396, 717.25 623.2, 717.25zM376.8, 717.25 C358.1604, 717.25 343.05, 702.1396 343.05, 683.5 C343.05, 664.8604 358.1604, 649.75 376.8, 649.75 C395.4396, 649.75 410.55, 664.8604 410.55, 683.5 C410.55, 702.1396 395.4396, 717.25 376.8, 717.25zM623.2, 729.75 C648.7432, 729.75 669.45, 709.0432 669.45, 683.5 C669.45, 657.9568 648.7432, 637.25 623.2, 637.25 C597.6569, 637.25 576.95, 657.9568 576.95, 683.5 C576.95, 709.0432 597.6569, 729.75 623.2, 729.75zM376.8, 729.75 C402.3432, 729.75 423.05, 709.0432 423.05, 683.5 C423.05, 657.9568 402.3432, 637.25 376.8, 637.25 C351.2568, 637.25 330.55, 657.9568 330.55, 683.5 C330.55, 709.0432 351.2568, 729.75 376.8, 729.75zM728.915, 799.58 C715.7982, 799.58 705.165, 788.9468 705.165, 775.83 C705.165, 762.7133 715.7982, 752.08 728.915, 752.08 C742.0317, 752.08 752.665, 762.7133 752.665, 775.83 C752.665, 788.9468 742.0317, 799.58 728.915, 799.58zM271.085, 799.58 C257.9682, 799.58 247.335, 788.9468 247.335, 775.83 C247.335, 762.7133 257.9682, 752.08 271.085, 752.08 C284.2018, 752.08 294.835, 762.7133 294.835, 775.83 C294.835, 788.9468 284.2018, 799.58 271.085, 799.58zM728.915, 812.08 C748.9353, 812.08 765.165, 795.8503 765.165, 775.83 C765.165, 755.8097 748.9353, 739.58 728.915, 739.58 C708.8947, 739.58 692.665, 755.8097 692.665, 775.83 C692.665, 795.8503 708.8947, 812.08 728.915, 812.08zM271.085, 812.08 C291.1053, 812.08 307.335, 795.8503 307.335, 775.83 C307.335, 755.8097 291.1053, 739.58 271.085, 739.58 C251.0647, 739.58 234.835, 755.8097 234.835, 775.83 C234.835, 795.8503 251.0647, 812.08 271.085, 812.08zM618.88, 847.52 C605.7632, 847.52 595.13, 836.8868 595.13, 823.77 C595.13, 810.6533 605.7632, 800.02 618.88, 800.02 C631.9968, 800.02 642.63, 810.6533 642.63, 823.77 C642.63, 836.8868 631.9968, 847.52 618.88, 847.52zM381.12, 847.52 C368.0032, 847.52 357.37, 836.8868 357.37, 823.77 C357.37, 810.6533 368.0032, 800.02 381.12, 800.02 C394.2368, 800.02 404.87, 810.6533 404.87, 823.77 C404.87, 836.8868 394.2368, 847.52 381.12, 847.52zM618.88, 860.02 C638.9003, 860.02 655.13, 843.7903 655.13, 823.77 C655.13, 803.7497 638.9003, 787.52 618.88, 787.52 C598.8597, 787.52 582.63, 803.7497 582.63, 823.77 C582.63, 843.7903 598.8597, 860.02 618.88, 860.02zM381.12, 860.02 C401.1403, 860.02 417.37, 843.7903 417.37, 823.77 C417.37, 803.7497 401.1403, 787.52 381.12, 787.52 C361.0997, 787.52 344.87, 803.7497 344.87, 823.77 C344.87, 843.7903 361.0997, 860.02 381.12, 860.02zM500, 863.75 C486.8832, 863.75 476.25, 853.1168 476.25, 840 C476.25, 826.8832 486.8832, 816.25 500, 816.25 C513.1168, 816.25 523.75, 826.8832 523.75, 840 C523.75, 853.1168 513.1168, 863.75 500, 863.75zM500, 876.25 C520.0203, 876.25 536.25, 860.0203 536.25, 840 C536.25, 819.9797 520.0203, 803.75 500, 803.75 C479.9797, 803.75 463.75, 819.9797 463.75, 840 C463.75, 860.0203 479.9797, 876.25 500, 876.25z" />
<glyph unicode="&#x005F;" d="M100, 481.25 C101.5995, 481.25 103.199, 480.6398 104.4194, 479.4194 L250, 333.8389 L395.5806, 479.4194 C398.0214, 481.8602 401.9786, 481.8602 404.4194, 479.4194 C406.8602, 476.9786 406.8602, 473.0214 404.4194, 470.5806 L254.4194, 320.5806 C251.9786, 318.1398 248.0214, 318.1398 245.5806, 320.5806 L95.58058, 470.5806 C93.13981, 473.0214 93.13981, 476.9786 95.58058, 479.4194 C96.80097, 480.6398 98.40048, 481.25 100, 481.25z" />
<glyph unicode="&#x005E;" d="M250, 481.25 C251.5995, 481.25 253.199, 480.6398 254.4194, 479.4194 L404.4194, 329.4194 C406.8602, 326.9786 406.8602, 323.0214 404.4194, 320.5806 C401.9786, 318.1398 398.0214, 318.1398 395.5806, 320.5806 L250, 466.1612 L104.4194, 320.5806 C101.9786, 318.1398 98.02136, 318.1398 95.58058, 320.5806 C93.13981, 323.0214 93.13981, 326.9786 95.58058, 329.4194 L245.5806, 479.4194 C246.801, 480.6398 248.4005, 481.25 250, 481.25z" />
<glyph unicode="&#x00D7;" d="M143.934, 512.316 C145.5335, 512.316 147.133, 511.7058 148.3534, 510.4854 L250, 408.8388 L351.6466, 510.4854 C354.0874, 512.9262 358.0446, 512.9262 360.4854, 510.4854 C362.9262, 508.0446 362.9262, 504.0874 360.4854, 501.6466 L258.8388, 400 L360.4854, 298.3534 C362.9262, 295.9126 362.9262, 291.9553 360.4854, 289.5146 C358.0446, 287.0738 354.0874, 287.0738 351.6466, 289.5146 L250, 391.1612 L148.3534, 289.5146 C145.9126, 287.0738 141.9553, 287.0738 139.5146, 289.5146 C137.0738, 291.9553 137.0738, 295.9126 139.5146, 298.3534 L241.1612, 400 L139.5146, 501.6466 C137.0738, 504.0874 137.0738, 508.0446 139.5146, 510.4854 C140.735, 511.7058 142.3345, 512.316 143.934, 512.316z" />
<glyph unicode="&#x02DC;" d="M185.1384, 426.1751 C208.9263, 427.2686 233.2226, 420.4124 253.7526, 404.998 C295.1577, 373.9103 353.9247, 382.274 385.0125, 423.6791 C387.085, 426.4394 391.0028, 426.997 393.7631, 424.9245 C396.5234, 422.852 397.081, 418.9341 395.0085, 416.1738 C359.7757, 369.2481 293.1731, 359.7692 246.2474, 395.002 C204.8423, 426.0898 146.0753, 417.726 114.9875, 376.3209 C112.915, 373.5606 108.9972, 373.003 106.2369, 375.0755 C103.4765, 377.1481 102.919, 381.0659 104.9915, 383.8262 C124.8099, 410.2219 154.554, 424.7692 185.1384, 426.1751z" />
<glyph unicode="&#x007E;" d="M185.1384, 426.1751 C208.9263, 427.2686 233.2226, 420.4124 253.7526, 404.998 C295.1577, 373.9103 353.9247, 382.274 385.0125, 423.6791 C387.085, 426.4394 391.0028, 426.997 393.7631, 424.9245 C396.5234, 422.852 397.081, 418.9341 395.0085, 416.1738 C359.7757, 369.2481 293.1731, 359.7692 246.2474, 395.002 C204.8423, 426.0898 146.0753, 417.726 114.9875, 376.3209 C112.915, 373.5606 108.9972, 373.003 106.2369, 375.0755 C103.4765, 377.1481 102.919, 381.0659 104.9915, 383.8262 C124.8099, 410.2219 154.554, 424.7692 185.1384, 426.1751z" />
<glyph unicode="&#x00B4;" d="M236.185, 411.4277 L224.7574, 388.5723 L263.8149, 388.5723 L275.2426, 411.4277 L236.185, 411.4277zM303.4325, 459.2719 C304.2427, 459.2203 305.0562, 459.0091 305.8281, 458.6232 C308.9155, 457.0795 310.1669, 453.3253 308.6232, 450.2379 L295.468, 423.9277 L338.3883, 423.9277 C341.8401, 423.9277 344.6383, 421.1295 344.6383, 417.6777 C344.6383, 414.2259 341.8401, 411.4277 338.3883, 411.4277 L289.2181, 411.4277 L273.2679, 379.5272 L273.2113, 379.5555 L272.0971, 377.9029 C270.9661, 376.7719 269.4036, 376.0723 267.6777, 376.0723 L218.5074, 376.0723 L202.5572, 344.1719 C201.0135, 341.0845 197.2593, 339.8331 194.1719, 341.3768 C191.0845, 342.9205 189.8331, 346.6747 191.3768, 349.7621 L204.5319, 376.0723 L161.6116, 376.0723 C158.1599, 376.0723 155.3616, 378.8705 155.3616, 382.3223 C155.3616, 385.7741 158.1599, 388.5723 161.6116, 388.5723 L210.782, 388.5723 L226.7322, 420.4727 C227.504, 422.0164 228.8285, 423.1011 230.3459, 423.6069 L232.3223, 423.8645 L232.3223, 423.9277 L281.4926, 423.9277 L297.4428, 455.8281 C298.6006, 458.1436 301.0018, 459.4264 303.4325, 459.2719z" />
<glyph unicode="&#x0060;" d="M224.7574, 411.4277 L236.1851, 388.5723 L275.2426, 388.5723 L263.815, 411.4277 L224.7574, 411.4277zM196.5675, 459.2719 C198.9982, 459.4264 201.3994, 458.1436 202.5572, 455.8281 L218.5074, 423.9277 L267.6777, 423.9277 L267.6777, 423.8645 L269.6541, 423.6069 C271.1715, 423.1011 272.496, 422.0164 273.2679, 420.4727 L289.218, 388.5723 L338.3883, 388.5723 C341.8401, 388.5723 344.6383, 385.7741 344.6383, 382.3223 C344.6383, 378.8705 341.8401, 376.0723 338.3883, 376.0723 L295.468, 376.0723 L308.6232, 349.7621 C310.1669, 346.6747 308.9155, 342.9205 305.8281, 341.3768 C302.7407, 339.8331 298.9865, 341.0845 297.4428, 344.1719 L281.4926, 376.0723 L232.3223, 376.0723 C230.5964, 376.0723 229.0339, 376.7719 227.9029, 377.9029 L226.7887, 379.5555 L226.7322, 379.5272 L210.7819, 411.4277 L161.6116, 411.4277 C158.1599, 411.4277 155.3616, 414.2259 155.3616, 417.6777 C155.3616, 421.1295 158.1599, 423.9277 161.6116, 423.9277 L204.5319, 423.9277 L191.3768, 450.2379 C189.8331, 453.3253 191.0845, 457.0795 194.1719, 458.6232 C194.9438, 459.0091 195.7573, 459.2203 196.5675, 459.2719z" />
<glyph unicode="&#x00BB;" d="M375.4868, 481.2326 C377.915, 481.0419 380.1106, 479.4324 380.9293, 476.9764 L405.9293, 401.9764 L405.8693, 401.9564 L406.25, 400 C406.25, 398.4005 405.6398, 396.801 404.4194, 395.5806 L329.4194, 320.5806 C326.9786, 318.1398 323.0214, 318.1398 320.5806, 320.5806 C318.1398, 323.0214 318.1398, 326.9786 320.5806, 329.4194 L392.8492, 401.688 L369.0707, 473.0236 C367.9792, 476.2982 369.7489, 479.8377 373.0236, 480.9293 C373.8423, 481.2021 374.6775, 481.2962 375.4868, 481.2326zM150.4868, 481.2326 C152.915, 481.0419 155.1106, 479.4324 155.9293, 476.9764 L180.9293, 401.9764 L180.8693, 401.9564 L181.25, 400 C181.25, 398.4005 180.6398, 396.801 179.4194, 395.5806 L104.4194, 320.5806 C101.9786, 318.1398 98.02136, 318.1398 95.58058, 320.5806 C93.13981, 323.0214 93.13981, 326.9786 95.58058, 329.4194 L167.8492, 401.688 L144.0707, 473.0236 C142.9792, 476.2982 144.7489, 479.8377 148.0236, 480.9293 C148.8422, 481.2021 149.6774, 481.2962 150.4868, 481.2326z" />
<glyph unicode="&#x00AB;" d="M400, 481.25 C401.5995, 481.25 403.199, 480.6398 404.4194, 479.4194 C406.8602, 476.9786 406.8602, 473.0214 404.4194, 470.5806 L332.1508, 398.312 L355.9293, 326.9764 C357.0208, 323.7018 355.2511, 320.1623 351.9764, 319.0707 C348.7018, 317.9792 345.1623, 319.7489 344.0707, 323.0236 L319.0707, 398.0236 C318.525, 399.6609 318.6945, 401.3644 319.4099, 402.7951 L320.6253, 404.3747 L320.5806, 404.4194 L395.5806, 479.4194 C396.801, 480.6398 398.4005, 481.25 400, 481.25zM175, 481.25 C176.5995, 481.25 178.199, 480.6398 179.4194, 479.4194 C181.8602, 476.9786 181.8602, 473.0214 179.4194, 470.5806 L107.1508, 398.312 L130.9293, 326.9764 C132.0208, 323.7018 130.2511, 320.1623 126.9764, 319.0707 C123.7018, 317.9792 120.1623, 319.7489 119.0707, 323.0236 L94.07073, 398.0236 C93.52496, 399.6609 93.6945, 401.3644 94.40983, 402.7951 L95.62527, 404.3747 L95.58058, 404.4194 L170.5806, 479.4194 C171.801, 480.6398 173.4005, 481.25 175, 481.25z" />
<glyph unicode="&#x0022;" d="M375.4868, 481.2326 C377.915, 481.0419 380.1106, 479.4324 380.9293, 476.9764 L405.9293, 401.9764 L405.8693, 401.9564 L406.25, 400 C406.25, 398.4005 405.6398, 396.801 404.4194, 395.5806 L329.4194, 320.5806 C326.9786, 318.1398 323.0214, 318.1398 320.5806, 320.5806 C318.1398, 323.0214 318.1398, 326.9786 320.5806, 329.4194 L392.8492, 401.688 L369.0707, 473.0236 C367.9792, 476.2982 369.7489, 479.8377 373.0236, 480.9293 C373.8423, 481.2021 374.6775, 481.2962 375.4868, 481.2326zM175, 481.25 C176.5995, 481.25 178.199, 480.6398 179.4194, 479.4194 C181.8602, 476.9786 181.8602, 473.0214 179.4194, 470.5806 L107.1508, 398.312 L130.9293, 326.9764 C132.0208, 323.7018 130.2511, 320.1623 126.9764, 319.0707 C123.7018, 317.9792 120.1623, 319.7489 119.0707, 323.0236 L94.07073, 398.0236 C93.52496, 399.6609 93.6945, 401.3644 94.40983, 402.7951 L95.62527, 404.3747 L95.58058, 404.4194 L170.5806, 479.4194 C171.801, 480.6398 173.4005, 481.25 175, 481.25z" />
<glyph unicode="&#x0027;" d="M259.7686, 425.9298 L232.1508, 398.312 L240.2314, 374.0702 L267.8492, 401.688 L259.7686, 425.9298zM300, 481.25 C301.5995, 481.25 303.199, 480.6398 304.4194, 479.4194 C306.8602, 476.9786 306.8602, 473.0214 304.4194, 470.5806 L269.6508, 435.812 L280.9293, 401.9764 L280.8693, 401.9564 L281.25, 400 C281.25, 398.4005 280.6398, 396.801 279.4194, 395.5806 L244.6508, 360.812 L255.9293, 326.9764 C257.0208, 323.7018 255.2511, 320.1623 251.9764, 319.0707 C248.7018, 317.9792 245.1623, 319.7489 244.0707, 323.0236 L234.7686, 350.9298 L204.4194, 320.5806 C201.9786, 318.1398 198.0214, 318.1398 195.5806, 320.5806 C193.1398, 323.0214 193.1398, 326.9786 195.5806, 329.4194 L230.3492, 364.188 L219.0707, 398.0236 C218.525, 399.6609 218.6945, 401.3644 219.4098, 402.7951 L220.6253, 404.3747 L220.5806, 404.4194 L255.3492, 439.188 L244.0707, 473.0236 C242.9792, 476.2982 244.7489, 479.8377 248.0236, 480.9293 C251.2982, 482.0208 254.8377, 480.2511 255.9293, 476.9764 L265.2314, 449.0702 L295.5806, 479.4194 C296.801, 480.6398 298.4005, 481.25 300, 481.25z" />
<glyph horiz-adv-x="1000" glyph-name="@" unicode="&#x0040;" d="M500, 568.75 C406.8019, 568.75 331.25, 493.1981 331.25, 400 C331.25, 306.8019 406.8019, 231.25 500, 231.25 L668.75, 231.25 L668.75, 568.75 L500, 568.75zM500, 756.25 L675, 756.25 C775.1016, 756.25 856.25, 675.1016 856.25, 575 L856.25, 225 C856.25, 221.5482 853.4518, 218.75 850, 218.75 L500, 218.75 C399.8984, 218.75 318.75, 299.8984 318.75, 400 C318.75, 500.1016 399.8984, 581.25 500, 581.25 L675, 581.25 C678.4518, 581.25 681.25, 578.4518 681.25, 575 L681.25, 231.25 L843.75, 231.25 L843.75, 575 C843.75, 668.1981 768.1981, 743.75 675, 743.75 L500, 743.75 C310.1521, 743.75 156.25, 589.8479 156.25, 400 C156.25, 210.1521 310.1521, 56.25 500, 56.25 L850, 56.25 C853.4518, 56.25 856.25, 53.45178 856.25, 50 C856.25, 46.54822 853.4518, 43.75 850, 43.75 L500, 43.75 C303.2486, 43.75 143.75, 203.2485 143.75, 400 C143.75, 596.7515 303.2486, 756.25 500, 756.25z" />
<glyph unicode="&#x0026;" d="M263.1806, 371.7576 L262.1639, 371.2057 C258.4252, 369.6245 254.3147, 368.75 250, 368.75 C245.6853, 368.75 241.5748, 369.6245 237.8361, 371.2057 L236.8194, 371.7576 L232.9346, 366.111 C179.1016, 287.2324 131.25, 210.4061 131.25, 150 C131.25, 84.4162 184.4162, 31.25 250, 31.25 C315.5838, 31.25 368.75, 84.4162 368.75, 150 C368.75, 210.4061 320.8984, 287.2324 267.0654, 366.111 L263.1806, 371.7576zM250.8035, 389.7478 L249.5059, 387.7413 L244.9343, 382.0304 L246.2212, 381.6309 C247.4418, 381.3812 248.7056, 381.25 250, 381.25 C251.2944, 381.25 252.5582, 381.3812 253.7788, 381.6309 L255.9287, 382.2983 L250.8035, 389.7478zM265.3036, 410.7793 L260.6245, 404.9342 L256.8601, 399.1132 L264.4107, 388.1385 L265.5478, 389.5167 C267.5695, 392.5092 268.75, 396.1168 268.75, 400 C268.75, 403.8832 267.5695, 407.4908 265.5478, 410.4833 L265.3036, 410.7793zM235.5893, 411.8615 L234.4522, 410.4833 C232.4305, 407.4908 231.25, 403.8832 231.25, 400 C231.25, 396.1168 232.4305, 392.5092 234.4522, 389.5167 L234.6964, 389.2207 L239.3755, 395.0658 L243.1399, 400.8868 L235.5893, 411.8615zM250, 418.75 C248.7056, 418.75 247.4418, 418.6188 246.2212, 418.3691 L244.0713, 417.7017 L249.1965, 410.2522 L250.4941, 412.2587 L255.0657, 417.9696 L253.7788, 418.3691 C252.5582, 418.6188 251.2944, 418.75 250, 418.75zM250, 768.75 C184.4162, 768.75 131.25, 715.5838 131.25, 650 C131.25, 589.5939 179.1016, 512.7676 232.9346, 433.8889 L236.8194, 428.2424 L237.8361, 428.7942 C241.5748, 430.3755 245.6853, 431.25 250, 431.25 C254.3147, 431.25 258.4252, 430.3755 262.1639, 428.7942 L263.1806, 428.2424 L267.0654, 433.8889 C320.8984, 512.7676 368.75, 589.5939 368.75, 650 C368.75, 715.5838 315.5838, 768.75 250, 768.75zM250, 781.25 C322.4874, 781.25 381.25, 722.4874 381.25, 650 C381.25, 598.2233 346.0938, 534.3829 302.1484, 467.5266 L285.8204, 443.2058 L290.0048, 445.4987 C305.3383, 452.9633 322.3286, 456.6768 339.4557, 456.232 C356.5828, 455.7872 373.8467, 451.184 389.7275, 442.0152 C392.7169, 440.2893 393.7411, 436.4669 392.0152, 433.4775 C390.2893, 430.4882 386.4669, 429.464 383.4775, 431.1899 C349.8476, 450.6061 309.1883, 446.8184 280.0388, 424.7941 L274.0222, 419.7639 L275.913, 417.4722 C279.2825, 412.4846 281.25, 406.4721 281.25, 400 C281.25, 391.3705 277.7522, 383.558 272.0971, 377.9029 L271.686, 377.5637 L279.5654, 366.111 C333.3984, 287.2323 381.25, 210.4061 381.25, 150 C381.25, 77.51263 322.4874, 18.75 250, 18.75 C177.5126, 18.75 118.75, 77.51263 118.75, 150 C118.75, 201.7767 153.9063, 265.6171 197.8516, 332.4734 L214.0782, 356.6432 L207.683, 353.4098 C177.4668, 339.5872 141.24, 340.1057 110.2725, 357.9848 C107.2831, 359.7107 106.2589, 363.5331 107.9848, 366.5225 C109.7107, 369.5118 113.5331, 370.536 116.5225, 368.8101 C150.1524, 349.3939 190.8117, 353.1816 219.9612, 375.2059 L225.9778, 380.2361 L224.087, 382.5278 C220.7175, 387.5154 218.75, 393.5279 218.75, 400 C218.75, 408.6295 222.2478, 416.442 227.9029, 422.0971 L228.314, 422.4362 L220.4346, 433.8889 C166.6016, 512.7676 118.75, 589.5939 118.75, 650 C118.75, 722.4874 177.5126, 781.25 250, 781.25z" />
<glyph unicode="&#x0021;" d="M250, 68.75 C239.6447, 68.75 231.25, 60.35535 231.25, 50 C231.25, 39.64465 239.6447, 31.25 250, 31.25 C260.3553, 31.25 268.75, 39.64465 268.75, 50 C268.75, 60.35535 260.3553, 68.75 250, 68.75zM250, 81.25 C267.2589, 81.25 281.25, 67.25891 281.25, 50 C281.25, 32.74109 267.2589, 18.75 250, 18.75 C232.7411, 18.75 218.75, 32.74109 218.75, 50 C218.75, 67.25891 232.7411, 81.25 250, 81.25zM250, 781.25 C253.4518, 781.25 256.25, 778.4518 256.25, 775 L256.25, 275 C256.25, 271.5482 253.4518, 268.75 250, 268.75 C246.5482, 268.75 243.75, 271.5482 243.75, 275 L243.75, 775 C243.75, 778.4518 246.5482, 781.25 250, 781.25z" />
<glyph unicode="&#x003F;" d="M250, 68.75 C239.6447, 68.75 231.25, 60.35535 231.25, 50 C231.25, 39.64465 239.6447, 31.25 250, 31.25 C260.3553, 31.25 268.75, 39.64465 268.75, 50 C268.75, 60.35535 260.3553, 68.75 250, 68.75zM250, 81.25 C267.2589, 81.25 281.25, 67.25891 281.25, 50 C281.25, 32.74109 267.2589, 18.75 250, 18.75 C232.7411, 18.75 218.75, 32.74109 218.75, 50 C218.75, 67.25891 232.7411, 81.25 250, 81.25zM250, 781.25 C336.2945, 781.25 406.25, 711.2945 406.25, 625 C406.25, 538.7055 336.2945, 468.75 250, 468.75 C198.2233, 468.75 156.25, 426.7767 156.25, 375 C156.25, 323.2233 198.2233, 281.25 250, 281.25 C275.8883, 281.25 299.3258, 291.7433 316.2913, 308.7087 C318.732, 311.1495 322.6893, 311.1495 325.1301, 308.7087 C327.5709, 306.2679 327.5709, 302.3107 325.1301, 299.8699 C305.9026, 280.6425 279.3401, 268.75 250, 268.75 C191.3197, 268.75 143.75, 316.3198 143.75, 375 C143.75, 433.6803 191.3197, 481.25 250, 481.25 C329.3909, 481.25 393.75, 545.6091 393.75, 625 C393.75, 704.3909 329.3909, 768.75 250, 768.75 C210.3045, 768.75 174.367, 752.6602 148.3534, 726.6466 C145.9126, 724.2058 141.9553, 724.2058 139.5146, 726.6466 C137.0738, 729.0874 137.0738, 733.0447 139.5146, 735.4854 C167.7903, 763.7611 206.8528, 781.25 250, 781.25z" />
<glyph unicode="&#x2265;" d="M100, 131.25 L400, 131.25 C403.4518, 131.25 406.25, 128.4518 406.25, 125 C406.25, 121.5482 403.4518, 118.75 400, 118.75 L100, 118.75 C96.54822, 118.75 93.75, 121.5482 93.75, 125 C93.75, 128.4518 96.54822, 131.25 100, 131.25zM100, 681.25 C101.5995, 681.25 103.199, 680.6398 104.4194, 679.4194 L404.4194, 379.4194 C406.8602, 376.9786 406.8602, 373.0214 404.4194, 370.5806 C403.199, 369.3602 401.5995, 368.75 400, 368.75 L100, 368.75 C96.54822, 368.75 93.75, 371.5482 93.75, 375 C93.75, 378.4518 96.54822, 381.25 100, 381.25 L384.9112, 381.25 L95.58058, 670.5806 C93.13981, 673.0214 93.13981, 676.9786 95.58058, 679.4194 C96.80097, 680.6398 98.40048, 681.25 100, 681.25z" />
<glyph unicode="&#x2264;" d="M100, 131.25 L400, 131.25 C403.4518, 131.25 406.25, 128.4518 406.25, 125 C406.25, 121.5482 403.4518, 118.75 400, 118.75 L100, 118.75 C96.54822, 118.75 93.75, 121.5482 93.75, 125 C93.75, 128.4518 96.54822, 131.25 100, 131.25zM400, 681.25 C401.5995, 681.25 403.199, 680.6398 404.4194, 679.4194 C406.8602, 676.9786 406.8602, 673.0214 404.4194, 670.5806 L115.0889, 381.25 L400, 381.25 C403.4518, 381.25 406.25, 378.4518 406.25, 375 C406.25, 371.5482 403.4518, 368.75 400, 368.75 L100, 368.75 C96.54822, 368.75 93.75, 371.5482 93.75, 375 C93.75, 376.7259 94.44955, 378.2884 95.58058, 379.4194 L395.5806, 679.4194 C396.801, 680.6398 398.4005, 681.25 400, 681.25z" />
<glyph unicode="&#x003D;" d="M100, 281.25 L400, 281.25 C403.4518, 281.25 406.25, 278.4518 406.25, 275 C406.25, 271.5482 403.4518, 268.75 400, 268.75 L100, 268.75 C96.54822, 268.75 93.75, 271.5482 93.75, 275 C93.75, 278.4518 96.54822, 281.25 100, 281.25zM100, 531.25 L400, 531.25 C403.4518, 531.25 406.25, 528.4518 406.25, 525 C406.25, 521.5482 403.4518, 518.75 400, 518.75 L100, 518.75 C96.54822, 518.75 93.75, 521.5482 93.75, 525 C93.75, 528.4518 96.54822, 531.25 100, 531.25z" />
<glyph unicode="&#x003E;" d="M125, 656.25 C126.5995, 656.25 128.199, 655.6398 129.4194, 654.4194 L379.4194, 404.4194 C381.8602, 401.9786 381.8602, 398.0214 379.4194, 395.5806 L129.4194, 145.5806 C126.9786, 143.1398 123.0214, 143.1398 120.5806, 145.5806 C118.1398, 148.0214 118.1398, 151.9786 120.5806, 154.4194 L366.1612, 400 L120.5806, 645.5806 C118.1398, 648.0214 118.1398, 651.9786 120.5806, 654.4194 C121.801, 655.6398 123.4005, 656.25 125, 656.25z" />
<glyph unicode="&#x003C;" d="M375, 656.25 C376.5995, 656.25 378.199, 655.6398 379.4194, 654.4194 C381.8602, 651.9786 381.8602, 648.0214 379.4194, 645.5806 L133.8388, 400 L379.4194, 154.4194 C381.8602, 151.9786 381.8602, 148.0214 379.4194, 145.5806 C376.9786, 143.1398 373.0214, 143.1398 370.5806, 145.5806 L120.5806, 395.5806 C118.1398, 398.0214 118.1398, 401.9786 120.5806, 404.4194 L370.5806, 654.4194 C371.801, 655.6398 373.4005, 656.25 375, 656.25z" />
<glyph unicode="&#x00A6;" d="M250, -106.25 C239.6447, -106.25 231.25, -114.6447 231.25, -125 C231.25, -135.3553 239.6447, -143.75 250, -143.75 C260.3553, -143.75 268.75, -135.3553 268.75, -125 C268.75, -114.6447 260.3553, -106.25 250, -106.25zM250, 243.75 C239.6447, 243.75 231.25, 235.3553 231.25, 225 C231.25, 214.6447 239.6447, 206.25 250, 206.25 C260.3553, 206.25 268.75, 214.6447 268.75, 225 C268.75, 235.3553 260.3553, 243.75 250, 243.75zM250, 256.25 C267.2589, 256.25 281.25, 242.2589 281.25, 225 C281.25, 209.8984 270.5381, 197.2988 256.298, 194.3849 L256.25, 194.3801 L256.25, -94.38007 L256.298, -94.38489 C270.5381, -97.29883 281.25, -109.8984 281.25, -125 C281.25, -142.2589 267.2589, -156.25 250, -156.25 C232.7411, -156.25 218.75, -142.2589 218.75, -125 C218.75, -109.8984 229.4619, -97.29883 243.702, -94.38489 L243.75, -94.38007 L243.75, 194.3801 L243.702, 194.3849 C229.4619, 197.2988 218.75, 209.8984 218.75, 225 C218.75, 242.2589 232.7411, 256.25 250, 256.25zM250, 593.75 C239.6447, 593.75 231.25, 585.3553 231.25, 575 C231.25, 564.6447 239.6447, 556.25 250, 556.25 C260.3553, 556.25 268.75, 564.6447 268.75, 575 C268.75, 585.3553 260.3553, 593.75 250, 593.75zM250, 943.75 C239.6447, 943.75 231.25, 935.3553 231.25, 925 C231.25, 914.6447 239.6447, 906.25 250, 906.25 C260.3553, 906.25 268.75, 914.6447 268.75, 925 C268.75, 935.3553 260.3553, 943.75 250, 943.75zM250, 956.25 C267.2589, 956.25 281.25, 942.2589 281.25, 925 C281.25, 909.8984 270.5381, 897.2988 256.298, 894.3849 L256.25, 894.3801 L256.25, 605.6199 L256.298, 605.6151 C270.5381, 602.7012 281.25, 590.1016 281.25, 575 C281.25, 557.7411 267.2589, 543.75 250, 543.75 C232.7411, 543.75 218.75, 557.7411 218.75, 575 C218.75, 590.1016 229.4619, 602.7012 243.702, 605.6151 L243.75, 605.6199 L243.75, 894.3801 L243.702, 894.3849 C229.4619, 897.2988 218.75, 909.8984 218.75, 925 C218.75, 942.2589 232.7411, 956.25 250, 956.25z" />
<glyph unicode="&#x007C;" d="M250, -106.25 C239.6447, -106.25 231.25, -114.6447 231.25, -125 C231.25, -135.3553 239.6447, -143.75 250, -143.75 C260.3553, -143.75 268.75, -135.3553 268.75, -125 C268.75, -114.6447 260.3553, -106.25 250, -106.25zM250, 943.75 C239.6447, 943.75 231.25, 935.3553 231.25, 925 C231.25, 914.6447 239.6447, 906.25 250, 906.25 C260.3553, 906.25 268.75, 914.6447 268.75, 925 C268.75, 935.3553 260.3553, 943.75 250, 943.75zM250, 956.25 C267.2589, 956.25 281.25, 942.2589 281.25, 925 C281.25, 909.8984 270.5381, 897.2988 256.298, 894.3849 L256.25, 894.3801 L256.25, -94.38007 L256.298, -94.38489 C270.5381, -97.29883 281.25, -109.8984 281.25, -125 C281.25, -142.2589 267.2589, -156.25 250, -156.25 C232.7411, -156.25 218.75, -142.2589 218.75, -125 C218.75, -109.8984 229.4619, -97.29883 243.702, -94.38489 L243.75, -94.38007 L243.75, 894.3801 L243.702, 894.3849 C229.4619, 897.2988 218.75, 909.8984 218.75, 925 C218.75, 942.2589 232.7411, 956.25 250, 956.25z" />
<glyph unicode="&#x005D;" d="M100, -106.25 C89.64466, -106.25 81.25, -114.6447 81.25, -125 C81.25, -135.3553 89.64466, -143.75 100, -143.75 C110.3553, -143.75 118.75, -135.3553 118.75, -125 C118.75, -114.6447 110.3553, -106.25 100, -106.25zM100, 943.75 C89.64466, 943.75 81.25, 935.3553 81.25, 925 C81.25, 914.6447 89.64466, 906.25 100, 906.25 C110.3553, 906.25 118.75, 914.6447 118.75, 925 C118.75, 935.3553 110.3553, 943.75 100, 943.75zM100, 956.25 C115.1015, 956.25 127.7012, 945.5381 130.6151, 931.298 L130.6199, 931.25 L250, 931.25 C250.8629, 931.25 251.685, 931.0751 252.4328, 930.7589 L254.4194, 929.4194 L354.4194, 829.4194 L354.4194, 829.4194 C355.5504, 828.2884 356.25, 826.7259 356.25, 825 L356.25, -25 C356.25, -26.72589 355.5504, -28.28839 354.4194, -29.41943 L354.4194, -29.41943 L254.4194, -129.4194 L254.4194, -129.4194 L252.4328, -130.7588 C251.685, -131.0751 250.8629, -131.25 250, -131.25 L130.6199, -131.25 L130.6151, -131.298 C127.7012, -145.5381 115.1015, -156.25 100, -156.25 C82.7411, -156.25 68.75, -142.2589 68.75, -125 C68.75, -107.7411 82.7411, -93.75 100, -93.75 C115.1015, -93.75 127.7012, -104.4619 130.6151, -118.702 L130.6199, -118.75 L247.4111, -118.75 L343.75, -22.41113 L343.75, 822.4112 L247.4112, 918.75 L130.6199, 918.75 L130.6151, 918.702 C127.7012, 904.4619 115.1015, 893.75 100, 893.75 C82.7411, 893.75 68.75, 907.7411 68.75, 925 C68.75, 942.2589 82.7411, 956.25 100, 956.25z" />
<glyph unicode="&#x005B;" d="M400, -106.25 C389.6447, -106.25 381.25, -114.6447 381.25, -125 C381.25, -135.3553 389.6447, -143.75 400, -143.75 C410.3553, -143.75 418.75, -135.3553 418.75, -125 C418.75, -114.6447 410.3553, -106.25 400, -106.25zM400, 943.75 C389.6447, 943.75 381.25, 935.3553 381.25, 925 C381.25, 914.6447 389.6447, 906.25 400, 906.25 C410.3553, 906.25 418.75, 914.6447 418.75, 925 C418.75, 935.3553 410.3553, 943.75 400, 943.75zM400, 956.25 C417.2589, 956.25 431.25, 942.2589 431.25, 925 C431.25, 907.7411 417.2589, 893.75 400, 893.75 C384.8984, 893.75 372.2988, 904.4619 369.3849, 918.702 L369.3801, 918.75 L252.5888, 918.75 L156.25, 822.4111 L156.25, -22.41113 L252.5889, -118.75 L369.3801, -118.75 L369.3849, -118.702 C372.2988, -104.4619 384.8984, -93.75 400, -93.75 C417.2589, -93.75 431.25, -107.7411 431.25, -125 C431.25, -142.2589 417.2589, -156.25 400, -156.25 C384.8984, -156.25 372.2988, -145.5381 369.3849, -131.298 L369.3801, -131.25 L250, -131.25 C249.1371, -131.25 248.315, -131.0751 247.5672, -130.7588 L245.5806, -129.4194 L245.5806, -129.4194 L145.5806, -29.41943 C144.4496, -28.28839 143.75, -26.72589 143.75, -25 L143.75, 825 C143.75, 826.7259 144.4496, 828.2884 145.5806, 829.4194 L245.5806, 929.4194 L247.5672, 930.7589 C248.315, 931.0751 249.1371, 931.25 250, 931.25 L369.3801, 931.25 L369.3849, 931.298 C372.2988, 945.5381 384.8984, 956.25 400, 956.25z" />
<glyph unicode="&#x007D;" d="M100, -106.25 C89.64466, -106.25 81.25, -114.6447 81.25, -125 C81.25, -135.3553 89.64466, -143.75 100, -143.75 C110.3553, -143.75 118.75, -135.3553 118.75, -125 C118.75, -114.6447 110.3553, -106.25 100, -106.25zM100, 943.75 C89.64466, 943.75 81.25, 935.3553 81.25, 925 C81.25, 914.6447 89.64466, 906.25 100, 906.25 C110.3553, 906.25 118.75, 914.6447 118.75, 925 C118.75, 935.3553 110.3553, 943.75 100, 943.75zM100, 956.25 C117.2589, 956.25 131.25, 942.2589 131.25, 925 L130.955, 922.0737 L137.3924, 918.4739 C237.5369, 859.8975 306.25, 739.2832 306.25, 600 C306.25, 548.2233 348.2233, 506.25 400, 506.25 C403.4518, 506.25 406.25, 503.4518 406.25, 500 C406.25, 498.2741 405.5504, 496.7116 404.4194, 495.5806 L404.4193, 495.5805 L308.8388, 400 L404.4194, 304.4194 L404.4194, 304.4194 C405.5504, 303.2884 406.25, 301.7259 406.25, 300 C406.25, 296.5482 403.4518, 293.75 400, 293.75 C348.2233, 293.75 306.25, 251.7767 306.25, 200 C306.25, 60.71674 237.5369, -59.8974 137.3924, -118.4739 L130.955, -122.0737 L131.25, -125 C131.25, -142.2589 117.2589, -156.25 100, -156.25 C82.7411, -156.25 68.75, -142.2589 68.75, -125 C68.75, -107.7411 82.7411, -93.75 100, -93.75 C110.7868, -93.75 120.2971, -99.21527 125.913, -107.5278 L127.1915, -109.8832 L131.7846, -107.2994 C227.8415, -50.7782 293.75, 65.60388 293.75, 200 C293.75, 251.3452 330.1706, 294.184 378.5869, 304.0914 L385.9466, 305.2146 L295.5806, 395.5806 C293.1398, 398.0214 293.1398, 401.9786 295.5806, 404.4194 L385.9466, 494.7854 L378.5869, 495.9086 C330.1706, 505.816 293.75, 548.6548 293.75, 600 C293.75, 734.3961 227.8415, 850.7782 131.7846, 907.2994 L127.1914, 909.8832 L125.913, 907.5278 C120.2971, 899.2153 110.7868, 893.75 100, 893.75 C82.7411, 893.75 68.75, 907.7411 68.75, 925 C68.75, 942.2589 82.7411, 956.25 100, 956.25z" />
<glyph unicode="&#x007B;" d="M400, -106.25 C389.6447, -106.25 381.25, -114.6447 381.25, -125 C381.25, -135.3553 389.6447, -143.75 400, -143.75 C410.3553, -143.75 418.75, -135.3553 418.75, -125 C418.75, -114.6447 410.3553, -106.25 400, -106.25zM400, 943.75 C389.6447, 943.75 381.25, 935.3553 381.25, 925 C381.25, 914.6447 389.6447, 906.25 400, 906.25 C410.3553, 906.25 418.75, 914.6447 418.75, 925 C418.75, 935.3553 410.3553, 943.75 400, 943.75zM400, 956.25 C417.2589, 956.25 431.25, 942.2589 431.25, 925 C431.25, 907.7411 417.2589, 893.75 400, 893.75 C389.2132, 893.75 379.7029, 899.2153 374.087, 907.5278 L372.8086, 909.8832 L368.2154, 907.2994 C272.1585, 850.7782 206.25, 734.3961 206.25, 600 C206.25, 548.6548 169.8294, 505.816 121.4131, 495.9086 L114.0534, 494.7854 L204.4194, 404.4194 C206.8602, 401.9786 206.8602, 398.0214 204.4194, 395.5806 L114.0534, 305.2146 L121.4131, 304.0914 C169.8294, 294.184 206.25, 251.3452 206.25, 200 C206.25, 65.60388 272.1585, -50.7782 368.2154, -107.2994 L372.8085, -109.8832 L374.087, -107.5278 C379.7029, -99.21527 389.2132, -93.75 400, -93.75 C417.2589, -93.75 431.25, -107.7411 431.25, -125 C431.25, -142.2589 417.2589, -156.25 400, -156.25 C382.7411, -156.25 368.75, -142.2589 368.75, -125 L369.045, -122.0737 L362.6076, -118.4739 C262.4631, -59.8974 193.75, 60.71674 193.75, 200 C193.75, 251.7767 151.7767, 293.75 100, 293.75 C96.54822, 293.75 93.75, 296.5482 93.75, 300 C93.75, 301.7259 94.44955, 303.2884 95.58058, 304.4194 L191.1612, 400 L95.58063, 495.5805 L95.58058, 495.5806 C94.44955, 496.7116 93.75, 498.2741 93.75, 500 C93.75, 503.4518 96.54822, 506.25 100, 506.25 C151.7767, 506.25 193.75, 548.2233 193.75, 600 C193.75, 739.2832 262.4631, 859.8975 362.6076, 918.4739 L369.045, 922.0737 L368.75, 925 C368.75, 942.2589 382.7411, 956.25 400, 956.25z" />
<glyph unicode="&#x0029;" d="M100, -106.25 C89.64466, -106.25 81.25, -114.6447 81.25, -125 C81.25, -135.3553 89.64466, -143.75 100, -143.75 C110.3553, -143.75 118.75, -135.3553 118.75, -125 C118.75, -114.6447 110.3553, -106.25 100, -106.25zM100, 943.75 C89.64466, 943.75 81.25, 935.3553 81.25, 925 C81.25, 914.6447 89.64466, 906.25 100, 906.25 C110.3553, 906.25 118.75, 914.6447 118.75, 925 C118.75, 935.3553 110.3553, 943.75 100, 943.75zM100, 956.25 C115.1015, 956.25 127.7012, 945.5381 130.6151, 931.298 L131.0925, 926.5621 L142.0243, 921.3115 C296.3497, 842.4545 406.25, 638.8004 406.25, 400 C406.25, 161.1996 296.3497, -42.45447 142.0243, -121.3116 L131.0925, -126.5621 L130.6151, -131.298 C127.7012, -145.5381 115.1015, -156.25 100, -156.25 C82.7411, -156.25 68.75, -142.2589 68.75, -125 C68.75, -107.7411 82.7411, -93.75 100, -93.75 C112.9442, -93.75 124.0502, -101.62 128.7942, -112.8361 L129.0782, -113.751 L137.6543, -109.5967 C287.2312, -32.51166 393.75, 166.566 393.75, 400 C393.75, 633.4341 287.2312, 832.5117 137.6543, 909.5966 L129.0782, 913.751 L128.7942, 912.8361 C124.0502, 901.62 112.9442, 893.75 100, 893.75 C82.7411, 893.75 68.75, 907.7411 68.75, 925 C68.75, 942.2589 82.7411, 956.25 100, 956.25z" />
<glyph unicode="&#x0028;" d="M400, -106.25 C389.6447, -106.25 381.25, -114.6447 381.25, -125 C381.25, -135.3553 389.6447, -143.75 400, -143.75 C410.3553, -143.75 418.75, -135.3553 418.75, -125 C418.75, -114.6447 410.3553, -106.25 400, -106.25zM400, 943.75 C389.6447, 943.75 381.25, 935.3553 381.25, 925 C381.25, 914.6447 389.6447, 906.25 400, 906.25 C410.3553, 906.25 418.75, 914.6447 418.75, 925 C418.75, 935.3553 410.3553, 943.75 400, 943.75zM400, 956.25 C417.2589, 956.25 431.25, 942.2589 431.25, 925 C431.25, 907.7411 417.2589, 893.75 400, 893.75 C387.0558, 893.75 375.9498, 901.62 371.2058, 912.8361 L370.9218, 913.751 L362.3456, 909.5966 C212.7688, 832.5117 106.25, 633.4341 106.25, 400 C106.25, 166.566 212.7688, -32.51166 362.3456, -109.5967 L370.9218, -113.751 L371.2058, -112.8361 C375.9498, -101.62 387.0558, -93.75 400, -93.75 C417.2589, -93.75 431.25, -107.7411 431.25, -125 C431.25, -142.2589 417.2589, -156.25 400, -156.25 C384.8984, -156.25 372.2988, -145.5381 369.3849, -131.298 L368.9075, -126.5621 L357.9757, -121.3116 C203.6503, -42.45447 93.75, 161.1996 93.75, 400 C93.75, 638.8004 203.6503, 842.4545 357.9757, 921.3115 L368.9075, 926.5621 L369.3849, 931.298 C372.2988, 945.5381 384.8984, 956.25 400, 956.25z" />
<glyph unicode="&#x00B1;" d="M100, 206.25 L400, 206.25 C403.4518, 206.25 406.25, 203.4518 406.25, 200 C406.25, 196.5482 403.4518, 193.75 400, 193.75 L100, 193.75 C96.54822, 193.75 93.75, 196.5482 93.75, 200 C93.75, 203.4518 96.54822, 206.25 100, 206.25zM250, 656.25 C253.4518, 656.25 256.25, 653.4518 256.25, 650 L256.25, 506.25 L400, 506.25 C403.4518, 506.25 406.25, 503.4518 406.25, 500 C406.25, 496.5482 403.4518, 493.75 400, 493.75 L256.25, 493.75 L256.25, 350 C256.25, 346.5482 253.4518, 343.75 250, 343.75 C246.5482, 343.75 243.75, 346.5482 243.75, 350 L243.75, 493.75 L100, 493.75 C96.54822, 493.75 93.75, 496.5482 93.75, 500 C93.75, 503.4518 96.54822, 506.25 100, 506.25 L243.75, 506.25 L243.75, 650 C243.75, 653.4518 246.5482, 656.25 250, 656.25z" />
<glyph unicode="&#x002A;" d="M250, 556.25 C253.4518, 556.25 256.25, 553.4518 256.25, 550 L256.25, 410.8253 L376.7788, 480.4127 C379.7681, 482.1385 383.5906, 481.1143 385.3165, 478.125 C387.0424, 475.1357 386.0181, 471.3132 383.0288, 469.5873 L262.5, 400 L383.0288, 330.4127 C386.0181, 328.6868 387.0424, 324.8643 385.3165, 321.875 C383.5906, 318.8857 379.7681, 317.8615 376.7788, 319.5873 L256.25, 389.1747 L256.25, 250 C256.25, 246.5482 253.4518, 243.75 250, 243.75 C246.5482, 243.75 243.75, 246.5482 243.75, 250 L243.75, 389.1747 L123.2212, 319.5873 C120.2319, 317.8615 116.4094, 318.8857 114.6835, 321.875 C112.9576, 324.8643 113.9819, 328.6868 116.9712, 330.4127 L237.5, 400 L116.9712, 469.5873 C113.9819, 471.3132 112.9576, 475.1357 114.6835, 478.125 C116.4094, 481.1143 120.2319, 482.1385 123.2212, 480.4127 L243.75, 410.8253 L243.75, 550 C243.75, 553.4518 246.5482, 556.25 250, 556.25z" />
<glyph unicode="&#x002B;" d="M250, 556.25 C253.4518, 556.25 256.25, 553.4518 256.25, 550 L256.25, 406.25 L400, 406.25 C403.4518, 406.25 406.25, 403.4518 406.25, 400 C406.25, 396.5482 403.4518, 393.75 400, 393.75 L256.25, 393.75 L256.25, 250 C256.25, 246.5482 253.4518, 243.75 250, 243.75 C246.5482, 243.75 243.75, 246.5482 243.75, 250 L243.75, 393.75 L100, 393.75 C96.54822, 393.75 93.75, 396.5482 93.75, 400 C93.75, 403.4518 96.54822, 406.25 100, 406.25 L243.75, 406.25 L243.75, 550 C243.75, 553.4518 246.5482, 556.25 250, 556.25z" />
<glyph horiz-adv-x="1000" unicode="&#x2014;" d="M0, 393.75 L0, 406.25 L1000, 406.25 L1000, 393.75 L0, 393.75z" />
<glyph horiz-adv-x="1000" unicode="&#x2013;" d="M0, 393.75 L0, 406.25 L900, 406.25 C903.4518, 406.25 906.25, 403.4518 906.25, 400 C906.25, 396.5482 903.4518, 393.75 900, 393.75 L0, 393.75z" />
<glyph horiz-adv-x="1000" unicode="&#x2012;" d="M100, 393.75 C96.54822, 393.75 93.75, 396.5482 93.75, 400 C93.75, 403.4518 96.54822, 406.25 100, 406.25 L1000, 406.25 L1000, 393.75 L100, 393.75z" />
<glyph unicode="&#x2010;" d="M50, 393.75 C46.54822, 393.75 43.75, 396.5482 43.75, 400 C43.75, 403.4518 46.54822, 406.25 50, 406.25 L450, 406.25 C453.4518, 406.25 456.25, 403.4518 456.25, 400 C456.25, 396.5482 453.4518, 393.75 450, 393.75 L50, 393.75z" />
<glyph unicode="&#x2011;" d="M0, 393.75 L0, 406.25 L500, 406.25 L500, 393.75 L0, 393.75z" />
<glyph unicode="&#x002D;" d="M100, 393.75 C96.54822, 393.75 93.75, 396.5482 93.75, 400 C93.75, 403.4518 96.54822, 406.25 100, 406.25 L400, 406.25 C403.4518, 406.25 406.25, 403.4518 406.25, 400 C406.25, 396.5482 403.4518, 393.75 400, 393.75 L100, 393.75z" />
<glyph unicode="&#x2026;" d="M142, 293.75 C131.6447, 293.75 123.25, 285.3553 123.25, 275 C123.25, 264.6447 131.6447, 256.25 142, 256.25 C152.3553, 256.25 160.75, 264.6447 160.75, 275 C160.75, 285.3553 152.3553, 293.75 142, 293.75zM142, 306.25 C159.2589, 306.25 173.25, 292.2589 173.25, 275 C173.25, 257.7411 159.2589, 243.75 142, 243.75 C124.7411, 243.75 110.75, 257.7411 110.75, 275 C110.75, 292.2589 124.7411, 306.25 142, 306.25zM358, 418.75 C347.6447, 418.75 339.25, 410.3553 339.25, 400 C339.25, 389.6447 347.6447, 381.25 358, 381.25 C368.3553, 381.25 376.75, 389.6447 376.75, 400 C376.75, 410.3553 368.3553, 418.75 358, 418.75zM358, 431.25 C375.2589, 431.25 389.25, 417.2589 389.25, 400 C389.25, 382.7411 375.2589, 368.75 358, 368.75 C340.7411, 368.75 326.75, 382.7411 326.75, 400 C326.75, 417.2589 340.7411, 431.25 358, 431.25zM142, 543.75 C131.6447, 543.75 123.25, 535.3553 123.25, 525 C123.25, 514.6447 131.6447, 506.25 142, 506.25 C152.3553, 506.25 160.75, 514.6447 160.75, 525 C160.75, 535.3553 152.3553, 543.75 142, 543.75zM142, 556.25 C159.2589, 556.25 173.25, 542.2589 173.25, 525 C173.25, 507.7411 159.2589, 493.75 142, 493.75 C124.7411, 493.75 110.75, 507.7411 110.75, 525 C110.75, 542.2589 124.7411, 556.25 142, 556.25z" />
<glyph unicode="&#x003A;" d="M250, 293.75 C239.6447, 293.75 231.25, 285.3553 231.25, 275 C231.25, 264.6447 239.6447, 256.25 250, 256.25 C260.3553, 256.25 268.75, 264.6447 268.75, 275 C268.75, 285.3553 260.3553, 293.75 250, 293.75zM250, 306.25 C267.2589, 306.25 281.25, 292.2589 281.25, 275 C281.25, 257.7411 267.2589, 243.75 250, 243.75 C232.7411, 243.75 218.75, 257.7411 218.75, 275 C218.75, 292.2589 232.7411, 306.25 250, 306.25zM250, 543.75 C239.6447, 543.75 231.25, 535.3553 231.25, 525 C231.25, 514.6447 239.6447, 506.25 250, 506.25 C260.3553, 506.25 268.75, 514.6447 268.75, 525 C268.75, 535.3553 260.3553, 543.75 250, 543.75zM250, 556.25 C267.2589, 556.25 281.25, 542.2589 281.25, 525 C281.25, 507.7411 267.2589, 493.75 250, 493.75 C232.7411, 493.75 218.75, 507.7411 218.75, 525 C218.75, 542.2589 232.7411, 556.25 250, 556.25z" />
<glyph unicode="&#x00B7;" d="M250, 431.25 C267.2589, 431.25 281.25, 417.2589 281.25, 400 C281.25, 382.7411 267.2589, 368.75 250, 368.75 C232.7411, 368.75 218.75, 382.7411 218.75, 400 C218.75, 417.2589 232.7411, 431.25 250, 431.25zM250, 418.75 C239.6447, 418.75 231.25, 410.3553 231.25, 400 C231.25, 389.6447 239.6447, 381.25 250, 381.25 C260.3553, 381.25 268.75, 389.6447 268.75, 400 C268.75, 410.3553 260.3553, 418.75 250, 418.75z" />
<glyph unicode="&#x002E;" d="M250, 431.25 C267.2589, 431.25 281.25, 417.2589 281.25, 400 C281.25, 382.7411 267.2589, 368.75 250, 368.75 C232.7411, 368.75 218.75, 382.7411 218.75, 400 C218.75, 417.2589 232.7411, 431.25 250, 431.25zM250, 418.75 C239.6447, 418.75 231.25, 410.3553 231.25, 400 C231.25, 389.6447 239.6447, 381.25 250, 381.25 C260.3553, 381.25 268.75, 389.6447 268.75, 400 C268.75, 410.3553 260.3553, 418.75 250, 418.75z" />
<glyph unicode="&#x2022;" d="M250, 481.25 C294.8731, 481.25 331.25, 444.8731 331.25, 400 C331.25, 355.1269 294.8731, 318.75 250, 318.75 C205.1269, 318.75 168.75, 355.1269 168.75, 400 C168.75, 444.8731 205.1269, 481.25 250, 481.25zM250, 468.75 C212.0304, 468.75 181.25, 437.9696 181.25, 400 C181.25, 362.0304 212.0304, 331.25 250, 331.25 C287.9696, 331.25 318.75, 362.0304 318.75, 400 C318.75, 437.9696 287.9696, 468.75 250, 468.75z" />
<glyph unicode="&#x003B;" d="M162, 418.75 C151.6447, 418.75 143.25, 410.3553 143.25, 400 C143.25, 389.6447 151.6447, 381.25 162, 381.25 C172.3553, 381.25 180.75, 389.6447 180.75, 400 C180.75, 410.3553 172.3553, 418.75 162, 418.75zM162, 431.25 C179.2589, 431.25 193.25, 417.2589 193.25, 400 C193.25, 382.7411 179.2589, 368.75 162, 368.75 C144.7411, 368.75 130.75, 382.7411 130.75, 400 C130.75, 417.2589 144.7411, 431.25 162, 431.25zM317.0472, 543.1968 C313.4467, 542.9161 309.8885, 541.5942 306.8495, 539.1768 C298.7453, 532.7305 297.4014, 520.9349 303.8477, 512.8308 C310.2941, 504.7266 322.0896, 503.3827 330.1938, 509.829 C338.2979, 516.2754 339.6419, 528.0709 333.1955, 536.175 C329.1666, 541.2402 323.0481, 543.6646 317.0472, 543.1968zM319.8168, 555.7266 C328.5607, 555.3601 337.1025, 551.3431 342.9781, 543.9565 C352.3791, 532.1379 351.8393, 515.609 342.5088, 504.4639 L340.7846, 502.7838 L342.754, 499.4016 C390.4478, 412.9192 370.2767, 302.1289 290.3936, 238.5871 C287.6923, 236.4383 283.7604, 236.8863 281.6116, 239.5876 C279.4628, 242.2891 279.9108, 246.2209 282.6122, 248.3697 C357.6539, 308.0605 376.6024, 412.1362 331.7992, 493.3773 L330.4158, 495.7532 L326.9269, 494.3961 C315.1959, 491.1266 302.1231, 494.9191 294.0651, 505.0493 C283.3212, 518.5563 285.5611, 538.2155 299.0681, 548.9595 C304.1332, 552.9884 310.0634, 555.1915 316.0643, 555.6593 C317.3145, 555.7568 318.5677, 555.7789 319.8168, 555.7266z" />
<glyph unicode="&#x002C;" d="M243.0472, 543.1968 C239.4467, 542.9161 235.8885, 541.5942 232.8495, 539.1768 C224.7453, 532.7305 223.4014, 520.9349 229.8477, 512.8308 C236.2941, 504.7266 248.0896, 503.3827 256.1938, 509.829 C264.2979, 516.2754 265.6419, 528.0709 259.1955, 536.175 C255.1666, 541.2402 249.0481, 543.6646 243.0472, 543.1968zM242.0643, 555.6593 C252.0657, 556.439 262.2632, 552.3984 268.9781, 543.9565 C278.3791, 532.1379 277.8393, 515.609 268.5088, 504.4639 L266.7846, 502.7838 L268.754, 499.4016 C316.4478, 412.9192 296.2767, 302.1289 216.3936, 238.5871 C213.6922, 236.4383 209.7604, 236.8863 207.6116, 239.5876 C205.4628, 242.2891 205.9108, 246.2209 208.6122, 248.3697 C283.6539, 308.0605 302.6024, 412.1362 257.7992, 493.3773 L256.4158, 495.7532 L252.9269, 494.3961 C241.1959, 491.1266 228.1231, 494.9191 220.0651, 505.0493 C209.3212, 518.5563 211.5611, 538.2155 225.0681, 548.9595 C230.1332, 552.9884 236.0634, 555.1915 242.0643, 555.6593z" />
<glyph unicode="&#x005C;" d="M400, -106.25 C389.6447, -106.25 381.25, -114.6447 381.25, -125 C381.25, -135.3553 389.6447, -143.75 400, -143.75 C410.3553, -143.75 418.75, -135.3553 418.75, -125 C418.75, -114.6447 410.3553, -106.25 400, -106.25zM100, 943.75 C89.64466, 943.75 81.25, 935.3553 81.25, 925 C81.25, 914.6447 89.64466, 906.25 100, 906.25 C110.3553, 906.25 118.75, 914.6447 118.75, 925 C118.75, 935.3553 110.3553, 943.75 100, 943.75zM100, 956.25 C117.2589, 956.25 131.25, 942.2589 131.25, 925 C131.25, 914.2132 125.7847, 904.7029 117.4722, 899.087 L114.3829, 897.4102 L397.6395, -93.98798 L400, -93.75 C417.2589, -93.75 431.25, -107.7411 431.25, -125 C431.25, -142.2589 417.2589, -156.25 400, -156.25 C382.7411, -156.25 368.75, -142.2589 368.75, -125 C368.75, -114.2132 374.2153, -104.7029 382.5278, -99.08704 L385.6171, -97.41022 L102.3605, 893.988 L100, 893.75 C82.7411, 893.75 68.75, 907.7411 68.75, 925 C68.75, 942.2589 82.7411, 956.25 100, 956.25z" />
<glyph unicode="&#x002F;" d="M100, -106.25 C89.64466, -106.25 81.25, -114.6447 81.25, -125 C81.25, -135.3553 89.64466, -143.75 100, -143.75 C110.3553, -143.75 118.75, -135.3553 118.75, -125 C118.75, -114.6447 110.3553, -106.25 100, -106.25zM400, 943.75 C389.6447, 943.75 381.25, 935.3553 381.25, 925 C381.25, 914.6447 389.6447, 906.25 400, 906.25 C410.3553, 906.25 418.75, 914.6447 418.75, 925 C418.75, 935.3553 410.3553, 943.75 400, 943.75zM400, 956.25 C417.2589, 956.25 431.25, 942.2589 431.25, 925 C431.25, 907.7411 417.2589, 893.75 400, 893.75 L397.6395, 893.988 L114.3829, -97.41022 L117.4722, -99.08704 C125.7847, -104.7029 131.25, -114.2132 131.25, -125 C131.25, -142.2589 117.2589, -156.25 100, -156.25 C82.7411, -156.25 68.75, -142.2589 68.75, -125 C68.75, -107.7411 82.7411, -93.75 100, -93.75 L102.3605, -93.98798 L385.6171, 897.4102 L382.5278, 899.087 C374.2153, 904.7029 368.75, 914.2132 368.75, 925 C368.75, 942.2589 382.7411, 956.25 400, 956.25z" />
<glyph unicode="&#x0025;" d="M100, -106.25 C89.64466, -106.25 81.25, -114.6447 81.25, -125 C81.25, -135.3553 89.64466, -143.75 100, -143.75 C110.3553, -143.75 118.75, -135.3553 118.75, -125 C118.75, -114.6447 110.3553, -106.25 100, -106.25zM331.6592, 330.6573 C332.4651, 330.756 333.3036, 330.6983 334.1333, 330.4612 C390.5558, 314.3405 423.2268, 255.5327 407.1061, 199.1102 C390.9854, 142.6877 332.1776, 110.0167 275.7551, 126.1374 C272.4361, 127.0856 270.5143, 130.5449 271.4626, 133.8639 C272.4109, 137.1829 275.8701, 139.1047 279.1891, 138.1564 C328.9737, 123.9323 380.8629, 152.7596 395.0871, 202.5442 C409.3112, 252.3287 380.4839, 304.218 330.6993, 318.4421 C327.3804, 319.3904 325.4585, 322.8497 326.4068, 326.1687 C327.118, 328.658 329.2417, 330.3613 331.6592, 330.6573zM192.5528, 677.9496 C203.0026, 678.1926 213.6657, 676.8853 224.2449, 673.8626 C227.5639, 672.9144 229.4857, 669.4551 228.5374, 666.1361 C227.5891, 662.8171 224.1299, 660.8953 220.8109, 661.8436 C171.0264, 676.0677 119.1371, 647.2404 104.9129, 597.4558 C90.68875, 547.6713 119.5161, 495.782 169.3007, 481.5578 C172.6196, 480.6096 174.5415, 477.1503 173.5932, 473.8313 C172.6449, 470.5123 169.1856, 468.5905 165.8667, 469.5388 C109.4442, 485.6595 76.77315, 544.4673 92.89385, 600.8898 C105.9919, 646.7331 147.2702, 676.8967 192.5528, 677.9496zM400, 943.75 C389.6447, 943.75 381.25, 935.3553 381.25, 925 C381.25, 914.6447 389.6447, 906.25 400, 906.25 C410.3553, 906.25 418.75, 914.6447 418.75, 925 C418.75, 935.3553 410.3553, 943.75 400, 943.75zM400, 956.25 C417.2589, 956.25 431.25, 942.2589 431.25, 925 C431.25, 907.7411 417.2589, 893.75 400, 893.75 L397.6395, 893.988 L114.3829, -97.41022 L117.4722, -99.08704 C125.7847, -104.7029 131.25, -114.2132 131.25, -125 C131.25, -142.2589 117.2589, -156.25 100, -156.25 C82.7411, -156.25 68.75, -142.2589 68.75, -125 C68.75, -107.7411 82.7411, -93.75 100, -93.75 L102.3605, -93.98798 L385.6171, 897.4102 L382.5278, 899.087 C374.2153, 904.7029 368.75, 914.2132 368.75, 925 C368.75, 942.2589 382.7411, 956.25 400, 956.25z" />
<glyph horiz-adv-x="1000" unicode="&#x2122;" d="M325, 581.25 L675, 581.25 C678.4518, 581.25 681.25, 578.4518 681.25, 575 C681.25, 571.5482 678.4518, 568.75 675, 568.75 L506.25, 568.75 L506.25, 240.0889 L670.5806, 404.4194 C673.0214, 406.8602 676.9786, 406.8602 679.4194, 404.4194 C680.6398, 403.199 681.25, 401.5995 681.25, 400 L681.25, 400 L681.25, 225 C681.25, 221.5482 678.4518, 218.75 675, 218.75 C671.5482, 218.75 668.75, 221.5482 668.75, 225 L668.75, 384.9111 L504.4194, 220.5806 C501.9786, 218.1398 498.0214, 218.1398 495.5806, 220.5806 L331.25, 384.9112 L331.25, 225 C331.25, 221.5482 328.4518, 218.75 325, 218.75 C321.5482, 218.75 318.75, 221.5482 318.75, 225 L318.75, 400 C318.75, 401.5995 319.3602, 403.199 320.5806, 404.4194 C323.0214, 406.8602 326.9786, 406.8602 329.4194, 404.4194 L493.75, 240.0888 L493.75, 568.75 L325, 568.75 C321.5482, 568.75 318.75, 571.5482 318.75, 575 C318.75, 578.4518 321.5482, 581.25 325, 581.25zM325, 743.75 C231.8019, 743.75 156.25, 668.1981 156.25, 575 L156.25, 225 C156.25, 131.8019 231.8019, 56.25 325, 56.25 L675, 56.25 C768.1981, 56.25 843.75, 131.8019 843.75, 225 L843.75, 575 C843.75, 668.1981 768.1981, 743.75 675, 743.75 L325, 743.75zM325, 756.25 L675, 756.25 C775.1016, 756.25 856.25, 675.1016 856.25, 575 L856.25, 225 C856.25, 124.8984 775.1016, 43.75 675, 43.75 L325, 43.75 C224.8984, 43.75 143.75, 124.8984 143.75, 225 L143.75, 575 C143.75, 675.1016 224.8984, 756.25 325, 756.25z" />
<glyph horiz-adv-x="1000" unicode="&#x00AE;" d="M331.25, 568.75 L331.25, 343.75 L437.5, 343.75 C561.2247, 343.75 662.2555, 440.9144 668.4491, 563.0999 L668.592, 568.75 L331.25, 568.75zM325, 581.25 L675, 581.25 C678.4518, 581.25 681.25, 578.4518 681.25, 575 C681.25, 453.0012 591.6222, 351.936 474.6207, 334.0585 L462.592, 332.53 L677.6755, 230.6484 C680.795, 229.1707 682.126, 225.444 680.6484, 222.3245 C679.1707, 219.205 675.444, 217.874 672.3245, 219.3516 L436.0945, 331.25 L331.25, 331.25 L331.25, 225 C331.25, 221.5482 328.4518, 218.75 325, 218.75 C321.5482, 218.75 318.75, 221.5482 318.75, 225 L318.75, 575 C318.75, 578.4518 321.5482, 581.25 325, 581.25zM325, 743.75 C231.8019, 743.75 156.25, 668.1981 156.25, 575 L156.25, 225 C156.25, 131.8019 231.8019, 56.25 325, 56.25 L675, 56.25 C768.1981, 56.25 843.75, 131.8019 843.75, 225 L843.75, 575 C843.75, 668.1981 768.1981, 743.75 675, 743.75 L325, 743.75zM325, 756.25 L675, 756.25 C775.1016, 756.25 856.25, 675.1016 856.25, 575 L856.25, 225 C856.25, 124.8984 775.1016, 43.75 675, 43.75 L325, 43.75 C224.8984, 43.75 143.75, 124.8984 143.75, 225 L143.75, 575 C143.75, 675.1016 224.8984, 756.25 325, 756.25z" />
<glyph horiz-adv-x="1000" unicode="&#x00A9;" d="M500, 581.25 C550.0508, 581.25 595.3633, 560.9629 628.1631, 528.1631 C630.6039, 525.7223 630.6039, 521.765 628.1631, 519.3243 C625.7224, 516.8835 621.7651, 516.8835 619.3243, 519.3243 C588.7865, 549.862 546.599, 568.75 500, 568.75 C406.8019, 568.75 331.25, 493.1981 331.25, 400 C331.25, 306.8019 406.8019, 231.25 500, 231.25 C546.599, 231.25 588.7865, 250.138 619.3243, 280.6757 C621.7651, 283.1165 625.7224, 283.1165 628.1631, 280.6757 C630.6039, 278.2349 630.6039, 274.2776 628.1631, 271.8369 C595.3633, 239.0371 550.0508, 218.75 500, 218.75 C399.8984, 218.75 318.75, 299.8984 318.75, 400 C318.75, 500.1016 399.8984, 581.25 500, 581.25zM500, 743.75 C310.1521, 743.75 156.25, 589.8479 156.25, 400 C156.25, 210.1521 310.1521, 56.25 500, 56.25 C689.8479, 56.25 843.75, 210.1521 843.75, 400 C843.75, 589.8479 689.8479, 743.75 500, 743.75zM500, 756.25 C696.7515, 756.25 856.25, 596.7515 856.25, 400 C856.25, 203.2485 696.7515, 43.75 500, 43.75 C303.2486, 43.75 143.75, 203.2485 143.75, 400 C143.75, 596.7515 303.2486, 756.25 500, 756.25z" />
<glyph horiz-adv-x="1000" glyph-name="#" unicode="&#x0023;" d="M331.25, 568.75 L331.25, 231.25 L668.75, 231.25 L668.75, 568.75 L331.25, 568.75zM325, 756.25 C328.4518, 756.25 331.25, 753.4518 331.25, 750 L331.25, 581.25 L668.75, 581.25 L668.75, 750 C668.75, 753.4518 671.5482, 756.25 675, 756.25 C678.4518, 756.25 681.25, 753.4518 681.25, 750 L681.25, 581.25 L850, 581.25 C853.4518, 581.25 856.25, 578.4518 856.25, 575 C856.25, 571.5482 853.4518, 568.75 850, 568.75 L681.25, 568.75 L681.25, 231.25 L850, 231.25 C853.4518, 231.25 856.25, 228.4518 856.25, 225 C856.25, 221.5482 853.4518, 218.75 850, 218.75 L681.25, 218.75 L681.25, 50 C681.25, 46.54822 678.4518, 43.75 675, 43.75 C671.5482, 43.75 668.75, 46.54822 668.75, 50 L668.75, 218.75 L331.25, 218.75 L331.25, 50 C331.25, 46.54822 328.4518, 43.75 325, 43.75 C321.5482, 43.75 318.75, 46.54822 318.75, 50 L318.75, 218.75 L150, 218.75 C146.5482, 218.75 143.75, 221.5482 143.75, 225 C143.75, 228.4518 146.5482, 231.25 150, 231.25 L318.75, 231.25 L318.75, 568.75 L150, 568.75 C146.5482, 568.75 143.75, 571.5482 143.75, 575 C143.75, 578.4518 146.5482, 581.25 150, 581.25 L318.75, 581.25 L318.75, 750 C318.75, 753.4518 321.5482, 756.25 325, 756.25z" />
<glyph horiz-adv-x="1000" glyph-name="№" unicode="&#x2116;" d="M675, 231.25 L850, 231.25 C853.4518, 231.25 856.25, 228.4518 856.25, 225 C856.25, 221.5482 853.4518, 218.75 850, 218.75 L675, 218.75 C671.5482, 218.75 668.75, 221.5482 668.75, 225 C668.75, 228.4518 671.5482, 231.25 675, 231.25zM675, 743.75 C581.8019, 743.75 506.25, 668.1981 506.25, 575 C506.25, 481.8019 581.8019, 406.25 675, 406.25 C768.1981, 406.25 843.75, 481.8019 843.75, 575 C843.75, 668.1981 768.1981, 743.75 675, 743.75zM675, 756.25 C775.1016, 756.25 856.25, 675.1016 856.25, 575 C856.25, 474.8984 775.1016, 393.75 675, 393.75 C599.9238, 393.75 535.5088, 439.396 507.9935, 504.4493 L506.25, 508.8713 L506.25, 50 L506.135, 50 L506.1286, 48.77429 C505.8149, 47.20581 504.9029, 45.75708 503.4669, 44.79968 C500.5948, 42.88501 496.7144, 43.66107 494.7997, 46.53314 L156.25, 554.3577 L156.25, 50 C156.25, 46.54822 153.4518, 43.75 150, 43.75 C146.5482, 43.75 143.75, 46.54822 143.75, 50 L143.75, 575 L143.865, 575 L143.8714, 576.2257 C144.1851, 577.7942 145.0971, 579.243 146.5331, 580.2003 C147.2511, 580.679 148.0322, 580.9895 148.8298, 581.1411 C149.428, 581.2548 150.0355, 581.2792 150.6327, 581.2181 C152.4243, 581.0348 154.1233, 580.0824 155.2003, 578.4669 L493.75, 70.64233 L493.75, 575 C493.75, 675.1016 574.8984, 756.25 675, 756.25z" />
<glyph horiz-adv-x="1000" unicode="&#x0024;" d="M325, 756.25 C328.4518, 756.25 331.25, 753.4518 331.25, 750 L331.25, 656.25 L668.75, 656.25 L668.75, 750 C668.75, 753.4518 671.5482, 756.25 675, 756.25 C678.4518, 756.25 681.25, 753.4518 681.25, 750 L681.25, 656.25 L725, 656.25 C775.7411, 656.25 819.7572, 627.4563 841.6001, 585.3169 L841.5978, 585.3157 C843.1838, 582.2499 841.9841, 578.4788 838.9182, 576.8928 C835.8524, 575.3069 832.0813, 576.5066 830.4954, 579.5724 C810.7327, 617.6986 770.9087, 643.75 725, 643.75 L275, 643.75 C209.4162, 643.75 156.25, 590.5838 156.25, 525 C156.25, 459.4162 209.4162, 406.25 275, 406.25 L725, 406.25 C797.4874, 406.25 856.25, 347.4874 856.25, 275 C856.25, 202.5126 797.4874, 143.75 725, 143.75 L681.25, 143.75 L681.25, 50 C681.25, 46.54822 678.4518, 43.75 675, 43.75 C671.5482, 43.75 668.75, 46.54822 668.75, 50 L668.75, 143.75 L331.25, 143.75 L331.25, 50 C331.25, 46.54822 328.4518, 43.75 325, 43.75 C321.5482, 43.75 318.75, 46.54822 318.75, 50 L318.75, 143.75 L275, 143.75 C224.2588, 143.75 180.2428, 172.5437 158.3999, 214.683 L158.4022, 214.6843 C156.8162, 217.7501 158.0159, 221.5212 161.0818, 223.1071 C164.1476, 224.6931 167.9187, 223.4934 169.5047, 220.4276 C189.2673, 182.3015 229.0913, 156.25 275, 156.25 L725, 156.25 C790.5838, 156.25 843.75, 209.4162 843.75, 275 C843.75, 340.5838 790.5838, 393.75 725, 393.75 L275, 393.75 C202.5126, 393.75 143.75, 452.5126 143.75, 525 C143.75, 597.4874 202.5126, 656.25 275, 656.25 L318.75, 656.25 L318.75, 750 C318.75, 753.4518 321.5482, 756.25 325, 756.25z" />
<glyph horiz-adv-x="1000" unicode="&#x20BD;" d="M331.25, 743.6979 L331.25, 406.302 L351.6948, 406.4723 C616.945, 410.9001 829.6295, 480.9408 843.075, 568.2922 L843.5926, 575.033 L843.1164, 581.4347 C830.0725, 668.9132 617.2213, 739.0952 351.6948, 743.5277 L331.25, 743.6979zM325, 756.25 C618.4012, 756.25 856.25, 675.1016 856.25, 575 C856.25, 478.0266 633.0345, 398.8403 352.338, 393.9858 L331.25, 393.8039 L331.25, 206.25 L500, 206.25 C503.4518, 206.25 506.25, 203.4518 506.25, 200 C506.25, 196.5482 503.4518, 193.75 500, 193.75 L331.25, 193.75 L331.25, 50 C331.25, 46.54822 328.4518, 43.75 325, 43.75 C321.5482, 43.75 318.75, 46.54822 318.75, 50 L318.75, 193.75 L150, 193.75 C146.5482, 193.75 143.75, 196.5482 143.75, 200 C143.75, 203.4518 146.5482, 206.25 150, 206.25 L318.75, 206.25 L318.75, 393.75 L150, 393.75 C146.5482, 393.75 143.75, 396.5482 143.75, 400 C143.75, 403.4518 146.5482, 406.25 150, 406.25 L318.75, 406.25 L318.75, 750 C318.75, 753.4518 321.5482, 756.25 325, 756.25z" />
<glyph unicode="&#x044F;" d="M337.5, 568.75 C200.3996, 568.75 88.44661, 533.7358 81.58344, 489.705 L81.41199, 487.5 L81.58344, 485.295 C88.44661, 441.2642 200.3996, 406.25 337.5, 406.25 C382.3731, 406.25 418.75, 442.6269 418.75, 487.5 C418.75, 532.3732 382.3731, 568.75 337.5, 568.75zM337.5, 581.25 C389.2767, 581.25 431.25, 539.2767 431.25, 487.5 C431.25, 448.6675 407.64, 415.3494 373.9917, 401.1173 L370.9389, 400 L373.9917, 398.8827 C407.64, 384.6506 431.25, 351.3325 431.25, 312.5 L431.25, 225 C431.25, 221.5482 428.4518, 218.75 425, 218.75 C421.5482, 218.75 418.75, 221.5482 418.75, 225 L418.75, 312.5 C418.75, 354.5685 386.7781, 389.1697 345.8073, 393.3305 L343.5842, 393.4428 L343.5142, 390.6729 C338.6597, 294.9058 259.4734, 218.75 162.5, 218.75 C141.7893, 218.75 122.6472, 225.4657 107.1325, 236.8383 L107.133, 236.839 C104.3474, 238.8774 103.7417, 242.7881 105.7801, 245.5737 C106.7993, 246.9664 108.2866, 247.8143 109.8673, 248.0591 C111.4479, 248.304 113.122, 247.9457 114.5148, 246.9265 C127.9609, 237.0703 144.5508, 231.25 162.5, 231.25 C252.7856, 231.25 326.5108, 302.1537 331.0304, 391.3162 L331.0948, 393.8628 L310.0219, 394.234 C174.5031, 399.0349 68.75, 438.9594 68.75, 487.5 C68.75, 539.2767 189.0735, 581.25 337.5, 581.25z" />
<glyph horiz-adv-x="1000" glyph-name="ruYA" unicode="&#x042F;" d="M675, 743.75 C397.4554, 743.75 170.8187, 671.9709 156.925, 581.7077 L156.41, 575 L156.925, 568.2922 C170.8187, 478.0291 397.4554, 406.25 675, 406.25 C768.1981, 406.25 843.75, 481.8019 843.75, 575 C843.75, 668.1981 768.1981, 743.75 675, 743.75zM675, 756.25 C775.1016, 756.25 856.25, 675.1016 856.25, 575 C856.25, 493.6674 802.6794, 424.847 728.8982, 401.8987 L722.2121, 400 L728.8982, 398.1013 C802.6794, 375.153 856.25, 306.3326 856.25, 225 L856.25, 50 C856.25, 46.54822 853.4518, 43.75 850, 43.75 C846.5482, 43.75 843.75, 46.54822 843.75, 50 L843.75, 225 C843.75, 315.2856 772.8463, 389.0108 683.6838, 393.5304 L681.0881, 393.5961 L680.7864, 381.6674 C671.2449, 193.4356 515.603, 43.75 325, 43.75 C284.9594, 43.75 247.9512, 56.73376 217.9561, 78.72076 L217.9566, 78.72144 C215.171, 80.75989 214.5653, 84.67053 216.6038, 87.45612 C217.623, 88.84888 219.1102, 89.69672 220.6909, 89.94153 C222.2716, 90.1864 223.9456, 89.82819 225.3384, 88.80896 C253.2649, 68.33832 287.7208, 56.25 325, 56.25 C508.9152, 56.25 659.096, 200.6835 668.3027, 382.3107 L668.5934, 393.8053 L647.6619, 393.9858 C366.9655, 398.8403 143.75, 478.0266 143.75, 575 C143.75, 675.1016 381.5987, 756.25 675, 756.25z" />
<glyph unicode="&#x044E;" d="M335.4167, 568.6973 L328.8162, 568.5304 C239.6537, 564.0107 168.75, 490.2856 168.75, 400 C168.75, 309.7144 239.6537, 235.9893 328.8162, 231.4696 L335.4167, 231.3027 L338.7169, 231.4696 C383.2981, 235.9893 418.75, 309.7144 418.75, 400 C418.75, 490.2856 383.2981, 564.0107 338.7169, 568.5304 L335.4167, 568.6973zM75, 581.25 C78.45178, 581.25 81.25, 578.4518 81.25, 575 C81.25, 490.5392 112.275, 420.5711 152.7755, 408.1944 L156.4337, 407.2647 L156.4858, 409.3271 C161.3403, 505.0941 240.5266, 581.25 337.5, 581.25 C389.2767, 581.25 431.25, 500.1016 431.25, 400 C431.25, 299.8984 389.2767, 218.75 337.5, 218.75 C240.5266, 218.75 161.3403, 294.9058 156.4858, 390.6729 L156.4337, 392.7353 L152.7755, 391.8056 C112.275, 379.4289 81.25, 309.4608 81.25, 225 C81.25, 221.5482 78.45178, 218.75 75, 218.75 C71.54822, 218.75 68.75, 221.5482 68.75, 225 C68.75, 306.3326 96.45894, 375.153 134.6216, 398.1013 L138.0893, 400.0052 L135.7254, 401.2494 C96.99437, 423.5247 68.75, 492.8854 68.75, 575 C68.75, 578.4518 71.54822, 581.25 75, 581.25z" />
<glyph horiz-adv-x="1000" glyph-name="ruUU" unicode="&#x042E;" d="M672.9167, 743.6973 L657.3107, 743.3027 C475.6835, 734.096 331.25, 583.9152 331.25, 400 C331.25, 216.0848 475.6835, 65.90399 657.3107, 56.69727 L672.9167, 56.30267 L680.7197, 56.69727 C771.5333, 65.90399 843.75, 216.0848 843.75, 400 C843.75, 583.9152 771.5333, 734.096 680.7197, 743.3027 L672.9167, 743.6973zM150, 756.25 C153.4518, 756.25 156.25, 753.4518 156.25, 750 C156.25, 572.0176 223.8828, 425.6282 310.5518, 408.0247 L318.9207, 406.752 L319.2136, 418.3326 C328.755, 606.5643 484.397, 756.25 675, 756.25 C775.1016, 756.25 856.25, 596.7515 856.25, 400 C856.25, 203.2485 775.1016, 43.75 675, 43.75 C484.397, 43.75 328.755, 193.4356 319.2136, 381.6674 L318.9207, 393.248 L310.5518, 391.9753 C223.8828, 374.3718 156.25, 227.9824 156.25, 50 C156.25, 46.54822 153.4518, 43.75 150, 43.75 C146.5482, 43.75 143.75, 46.54822 143.75, 50 C143.75, 222.1575 205.8792, 365.7933 288.4718, 399.0123 L291.2531, 399.9885 L289.3021, 400.6578 C206.296, 433.2452 143.75, 577.2661 143.75, 750 C143.75, 753.4518 146.5482, 756.25 150, 756.25z" />
<glyph unicode="&#x044D;" d="M250, 406.25 L337.5, 406.25 C340.9518, 406.25 343.75, 403.4518 343.75, 400 C343.75, 396.5482 340.9518, 393.75 337.5, 393.75 L250, 393.75 C246.5482, 393.75 243.75, 396.5482 243.75, 400 C243.75, 403.4518 246.5482, 406.25 250, 406.25zM250, 581.25 C350.1016, 581.25 431.25, 539.2767 431.25, 487.5 C431.25, 339.0735 310.9265, 218.75 162.5, 218.75 C159.0482, 218.75 156.25, 221.5482 156.25, 225 C156.25, 228.4518 159.0482, 231.25 162.5, 231.25 C299.6004, 231.25 411.5534, 338.9186 418.4166, 474.3134 L418.6973, 485.4167 L418.5304, 488.7169 C414.0108, 533.2981 340.2856, 568.75 250, 568.75 C156.8019, 568.75 81.25, 532.3732 81.25, 487.5 C81.25, 484.0482 78.45178, 481.25 75, 481.25 C71.54822, 481.25 68.75, 484.0482 68.75, 487.5 C68.75, 539.2767 149.8984, 581.25 250, 581.25z" />
<glyph horiz-adv-x="1000" glyph-name="ruEEE" unicode="&#x042D;" d="M500, 406.25 L675, 406.25 C678.4518, 406.25 681.25, 403.4518 681.25, 400 C681.25, 396.5482 678.4518, 393.75 675, 393.75 L500, 393.75 C496.5482, 393.75 493.75, 396.5482 493.75, 400 C493.75, 403.4518 496.5482, 406.25 500, 406.25zM500, 756.25 C696.7515, 756.25 856.25, 675.1016 856.25, 575 C856.25, 281.5988 618.4012, 43.75 325, 43.75 C321.5482, 43.75 318.75, 46.54822 318.75, 50 C318.75, 53.45178 321.5482, 56.25 325, 56.25 C602.5447, 56.25 829.1813, 274.2133 843.075, 548.3052 L843.6973, 572.9166 L843.3027, 580.7197 C834.096, 671.5332 683.9152, 743.75 500, 743.75 C310.1521, 743.75 156.25, 668.1981 156.25, 575 C156.25, 571.5482 153.4518, 568.75 150, 568.75 C146.5482, 568.75 143.75, 571.5482 143.75, 575 C143.75, 675.1016 303.2486, 756.25 500, 756.25z" />
<glyph unicode="&#x044C;" d="M75, 581.25 C78.45178, 581.25 81.25, 578.4518 81.25, 575 L81.25, 312.5 C81.25, 267.6269 117.6269, 231.25 162.5, 231.25 C299.6004, 231.25 411.5534, 266.2642 418.4166, 310.295 L418.588, 312.5 L418.4166, 314.705 C411.5534, 358.7358 299.6004, 393.75 162.5, 393.75 C159.0482, 393.75 156.25, 396.5482 156.25, 400 C156.25, 403.4518 159.0482, 406.25 162.5, 406.25 C310.9265, 406.25 431.25, 364.2767 431.25, 312.5 C431.25, 260.7233 310.9265, 218.75 162.5, 218.75 C110.7233, 218.75 68.75, 260.7233 68.75, 312.5 L68.75, 575 C68.75, 578.4518 71.54822, 581.25 75, 581.25z" />
<glyph horiz-adv-x="1000" glyph-name="ruY" unicode="&#x042C;" d="M150, 756.25 C153.4518, 756.25 156.25, 753.4518 156.25, 750 L156.25, 225 C156.25, 131.8019 231.8019, 56.25 325, 56.25 C602.5447, 56.25 829.1813, 128.0291 843.075, 218.2922 L843.59, 225 L843.075, 231.7078 C829.1813, 321.9709 602.5447, 393.75 325, 393.75 C321.5482, 393.75 318.75, 396.5482 318.75, 400 C318.75, 403.4518 321.5482, 406.25 325, 406.25 C618.4012, 406.25 856.25, 325.1016 856.25, 225 C856.25, 124.8984 618.4012, 43.75 325, 43.75 C224.8984, 43.75 143.75, 124.8984 143.75, 225 L143.75, 750 C143.75, 753.4518 146.5482, 756.25 150, 756.25z" />
<glyph unicode="&#x044B;" d="M75, 581.25 C78.45178, 581.25 81.25, 578.4518 81.25, 575 L81.25, 312.5 C81.25, 267.6269 117.6269, 231.25 162.5, 231.25 C233.2615, 231.25 297.324, 259.9318 343.6961, 306.3039 L349.5909, 312.4868 L344.1303, 318.2608 C297.7243, 364.8887 233.4826, 393.75 162.5, 393.75 C159.0482, 393.75 156.25, 396.5482 156.25, 400 C156.25, 403.4518 159.0482, 406.25 162.5, 406.25 C236.9452, 406.25 304.3206, 375.9808 352.9904, 327.0784 L357.9367, 321.848 L360.235, 324.5012 C396.7905, 368.7963 418.75, 425.5837 418.75, 487.5 L418.75, 575 C418.75, 578.4518 421.5482, 581.25 425, 581.25 C428.4518, 581.25 431.25, 578.4518 431.25, 575 L431.25, 487.5 L431.25, 225 C431.25, 221.5482 428.4518, 218.75 425, 218.75 C421.5482, 218.75 418.75, 221.5482 418.75, 225 L418.75, 406.348 L414.9423, 395.0947 C377.2637, 292.1896 278.4582, 218.75 162.5, 218.75 C110.7233, 218.75 68.75, 260.7233 68.75, 312.5 L68.75, 575 C68.75, 578.4518 71.54822, 581.25 75, 581.25z" />
<glyph horiz-adv-x="1000" glyph-name="ruYI" unicode="&#x042B;" d="M150, 756.25 C153.4518, 756.25 156.25, 753.4518 156.25, 750 L156.25, 225 C156.25, 131.8019 231.8019, 56.25 325, 56.25 C468.2489, 56.25 597.9364, 114.313 691.8116, 208.1884 L707.798, 224.9558 L692.6907, 240.9305 C598.7468, 335.3234 468.6965, 393.75 325, 393.75 C321.5482, 393.75 318.75, 396.5482 318.75, 400 C318.75, 403.4518 321.5482, 406.25 325, 406.25 C472.1591, 406.25 605.3431, 346.4156 701.5507, 249.7481 L716.077, 234.3878 L725.2927, 245.0268 C799.2955, 334.6974 843.75, 449.6572 843.75, 575 L843.75, 750 C843.75, 753.4518 846.5482, 756.25 850, 756.25 C853.4518, 756.25 856.25, 753.4518 856.25, 750 L856.25, 575 L856.25, 50 C856.25, 46.54822 853.4518, 43.75 850, 43.75 C846.5482, 43.75 843.75, 46.54822 843.75, 50 L843.75, 460.539 L839.5248, 442.2324 C780.566, 213.0779 572.5573, 43.75 325, 43.75 C224.8984, 43.75 143.75, 124.8984 143.75, 225 L143.75, 750 C143.75, 753.4518 146.5482, 756.25 150, 756.25z" />
<glyph unicode="&#x044A;" d="M168.75, 393.6474 L168.75, 231.3527 L188.7001, 231.6802 C313.6085, 235.8055 411.9962, 269.1049 418.4166, 310.295 L418.5932, 312.5671 L418.4568, 314.4386 C412.4201, 355.7515 313.8777, 389.1856 188.7001, 393.3198 L168.75, 393.6474zM75, 581.25 L162.5, 581.25 C165.9518, 581.25 168.75, 578.4518 168.75, 575 L168.75, 406.1399 L189.9781, 405.766 C325.4969, 400.965 431.25, 361.0406 431.25, 312.5 C431.25, 260.7233 310.9265, 218.75 162.5, 218.75 C159.0482, 218.75 156.25, 221.5482 156.25, 225 L156.25, 568.75 L75, 568.75 C71.54822, 568.75 68.75, 571.5482 68.75, 575 C68.75, 578.4518 71.54822, 581.25 75, 581.25z" />
<glyph horiz-adv-x="1000" glyph-name="ruYT" unicode="&#x042A;" d="M331.25, 393.698 L331.25, 56.30206 L351.6948, 56.47229 C616.945, 60.90015 829.6295, 130.9408 843.075, 218.2922 L843.5926, 225.033 L843.1164, 231.4347 C830.0725, 318.9132 617.2213, 389.0952 351.6948, 393.5277 L331.25, 393.698zM150, 756.25 L325, 756.25 C328.4518, 756.25 331.25, 753.4518 331.25, 750 L331.25, 406.1961 L352.338, 406.0142 C633.0345, 401.1597 856.25, 321.9734 856.25, 225 C856.25, 124.8984 618.4012, 43.75 325, 43.75 C321.5482, 43.75 318.75, 46.54822 318.75, 50 L318.75, 743.75 L150, 743.75 C146.5482, 743.75 143.75, 746.5482 143.75, 750 C143.75, 753.4518 146.5482, 756.25 150, 756.25z" />
<glyph unicode="&#x0449;" d="M206.25, 581.25 C209.7018, 581.25 212.5, 578.4518 212.5, 575 L212.5, 312.5 C212.5, 309.0482 209.7018, 306.25 206.25, 306.25 C202.7982, 306.25 200, 309.0482 200, 312.5 L200, 575 C200, 578.4518 202.7982, 581.25 206.25, 581.25zM75, 581.25 C78.45178, 581.25 81.25, 578.4518 81.25, 575 L81.25, 316.6667 C81.25, 269.4924 137.2144, 231.25 206.25, 231.25 C275.2856, 231.25 331.25, 269.4924 331.25, 316.6667 L331.25, 575 C331.25, 578.4518 334.0482, 581.25 337.5, 581.25 C340.9518, 581.25 343.75, 578.4518 343.75, 575 L343.75, 318.75 L425, 318.75 C428.4518, 318.75 431.25, 315.9518 431.25, 312.5 L431.25, 225 C431.25, 221.5482 428.4518, 218.75 425, 218.75 C421.5482, 218.75 418.75, 221.5482 418.75, 225 L418.75, 306.25 L343.2871, 306.25 L343.0401, 302.9146 C335.9987, 255.6406 277.443, 218.75 206.25, 218.75 C130.3109, 218.75 68.75, 260.7233 68.75, 312.5 L68.75, 575 C68.75, 578.4518 71.54822, 581.25 75, 581.25z" />
<glyph horiz-adv-x="1000" glyph-name="ruSHE" unicode="&#x0429;" d="M412.5, 756.25 C415.9518, 756.25 418.75, 753.4518 418.75, 750 L418.75, 225 C418.75, 221.5482 415.9518, 218.75 412.5, 218.75 C409.0482, 218.75 406.25, 221.5482 406.25, 225 L406.25, 750 C406.25, 753.4518 409.0482, 756.25 412.5, 756.25zM150, 756.25 C153.4518, 756.25 156.25, 753.4518 156.25, 750 L156.25, 229.1667 C156.25, 133.6674 270.977, 56.25 412.5, 56.25 C554.0229, 56.25 668.75, 133.6674 668.75, 229.1667 L668.75, 750 C668.75, 753.4518 671.5482, 756.25 675, 756.25 C678.4518, 756.25 681.25, 753.4518 681.25, 750 L681.25, 231.25 L850, 231.25 C853.4518, 231.25 856.25, 228.4518 856.25, 225 L856.25, 50 C856.25, 46.54822 853.4518, 43.75 850, 43.75 C846.5482, 43.75 843.75, 46.54822 843.75, 50 L843.75, 218.75 L681.0157, 218.75 L680.9003, 215.6729 C673.7023, 119.9058 556.2882, 43.75 412.5, 43.75 C264.0735, 43.75 143.75, 124.8984 143.75, 225 L143.75, 750 C143.75, 753.4518 146.5482, 756.25 150, 756.25z" />
<glyph unicode="&#x0448;" d="M250, 581.25 C253.4518, 581.25 256.25, 578.4518 256.25, 575 L256.25, 312.5 C256.25, 309.0482 253.4518, 306.25 250, 306.25 C246.5482, 306.25 243.75, 309.0482 243.75, 312.5 L243.75, 575 C243.75, 578.4518 246.5482, 581.25 250, 581.25zM75, 581.25 C78.45178, 581.25 81.25, 578.4518 81.25, 575 L81.25, 315.625 C81.25, 269.026 156.8019, 231.25 250, 231.25 C343.1981, 231.25 418.75, 269.026 418.75, 315.625 L418.75, 575 C418.75, 578.4518 421.5482, 581.25 425, 581.25 C428.4518, 581.25 431.25, 578.4518 431.25, 575 L431.25, 312.5 C431.25, 260.7233 350.1016, 218.75 250, 218.75 C149.8984, 218.75 68.75, 260.7233 68.75, 312.5 L68.75, 575 C68.75, 578.4518 71.54822, 581.25 75, 581.25z" />
<glyph horiz-adv-x="1000" glyph-name="ruSH" unicode="&#x0428;" d="M500, 756.25 C503.4518, 756.25 506.25, 753.4518 506.25, 750 L506.25, 225 C506.25, 221.5482 503.4518, 218.75 500, 218.75 C496.5482, 218.75 493.75, 221.5482 493.75, 225 L493.75, 750 C493.75, 753.4518 496.5482, 756.25 500, 756.25zM150, 756.25 C153.4518, 756.25 156.25, 753.4518 156.25, 750 L156.25, 228.125 C156.25, 133.201 310.1521, 56.25 500, 56.25 C689.8479, 56.25 843.75, 133.201 843.75, 228.125 L843.75, 750 C843.75, 753.4518 846.5482, 756.25 850, 756.25 C853.4518, 756.25 856.25, 753.4518 856.25, 750 L856.25, 225 C856.25, 124.8984 696.7515, 43.75 500, 43.75 C303.2486, 43.75 143.75, 124.8984 143.75, 225 L143.75, 750 C143.75, 753.4518 146.5482, 756.25 150, 756.25z" />
<glyph unicode="&#x0447;" d="M75, 581.25 C78.45178, 581.25 81.25, 578.4518 81.25, 575 C81.25, 481.8019 156.8019, 406.25 250, 406.25 L418.75, 406.25 L418.75, 575 C418.75, 578.4518 421.5482, 581.25 425, 581.25 C428.4518, 581.25 431.25, 578.4518 431.25, 575 L431.25, 225 C431.25, 221.5482 428.4518, 218.75 425, 218.75 C421.5482, 218.75 418.75, 221.5482 418.75, 225 L418.75, 393.75 L250, 393.75 C149.8984, 393.75 68.75, 474.8984 68.75, 575 C68.75, 578.4518 71.54822, 581.25 75, 581.25z" />
<glyph horiz-adv-x="1000" glyph-name="ruCH" unicode="&#x0427;" d="M150, 756.25 C153.4518, 756.25 156.25, 753.4518 156.25, 750 C156.25, 560.1521 310.1521, 406.25 500, 406.25 L843.75, 406.25 L843.75, 750 C843.75, 753.4518 846.5482, 756.25 850, 756.25 C853.4518, 756.25 856.25, 753.4518 856.25, 750 L856.25, 50 C856.25, 46.54822 853.4518, 43.75 850, 43.75 C846.5482, 43.75 843.75, 46.54822 843.75, 50 L843.75, 393.75 L500, 393.75 C303.2486, 393.75 143.75, 553.2485 143.75, 750 C143.75, 753.4518 146.5482, 756.25 150, 756.25z" />
<glyph unicode="&#x0446;" d="M75, 581.25 C78.45178, 581.25 81.25, 578.4518 81.25, 575 L81.25, 316.6667 C81.25, 269.4924 137.2144, 231.25 206.25, 231.25 C275.2856, 231.25 331.25, 269.4924 331.25, 316.6667 L331.25, 575 C331.25, 578.4518 334.0482, 581.25 337.5, 581.25 C340.9518, 581.25 343.75, 578.4518 343.75, 575 L343.75, 318.75 L425, 318.75 C428.4518, 318.75 431.25, 315.9518 431.25, 312.5 L431.25, 225 C431.25, 221.5482 428.4518, 218.75 425, 218.75 C421.5482, 218.75 418.75, 221.5482 418.75, 225 L418.75, 306.25 L343.2871, 306.25 L343.0401, 302.9146 C335.9987, 255.6406 277.443, 218.75 206.25, 218.75 C130.3109, 218.75 68.75, 260.7233 68.75, 312.5 L68.75, 575 C68.75, 578.4518 71.54822, 581.25 75, 581.25z" />
<glyph horiz-adv-x="1000" glyph-name="ruCC" unicode="&#x0426;" d="M150, 756.25 C153.4518, 756.25 156.25, 753.4518 156.25, 750 L156.25, 229.1667 C156.25, 133.6674 270.977, 56.25 412.5, 56.25 C554.0229, 56.25 668.75, 133.6674 668.75, 229.1667 L668.75, 750 C668.75, 753.4518 671.5482, 756.25 675, 756.25 C678.4518, 756.25 681.25, 753.4518 681.25, 750 L681.25, 231.25 L850, 231.25 C853.4518, 231.25 856.25, 228.4518 856.25, 225 L856.25, 50 C856.25, 46.54822 853.4518, 43.75 850, 43.75 C846.5482, 43.75 843.75, 46.54822 843.75, 50 L843.75, 218.75 L681.0157, 218.75 L680.9003, 215.6729 C673.7023, 119.9058 556.2882, 43.75 412.5, 43.75 C264.0735, 43.75 143.75, 124.8984 143.75, 225 L143.75, 750 C143.75, 753.4518 146.5482, 756.25 150, 756.25z" />
<glyph unicode="&#x0445;" d="M75, 581.25 C156.3326, 581.25 225.153, 527.6794 248.1014, 453.8982 L250, 447.2121 L251.8986, 453.8982 C274.847, 527.6794 343.6674, 581.25 425, 581.25 C428.4518, 581.25 431.25, 578.4518 431.25, 575 C431.25, 571.5482 428.4518, 568.75 425, 568.75 C331.8019, 568.75 256.25, 493.1981 256.25, 400 C256.25, 306.8019 331.8019, 231.25 425, 231.25 C428.4518, 231.25 431.25, 228.4518 431.25, 225 C431.25, 221.5482 428.4518, 218.75 425, 218.75 C343.6674, 218.75 274.847, 272.3206 251.8986, 346.1018 L250, 352.7879 L248.1014, 346.1018 C225.153, 272.3206 156.3326, 218.75 75, 218.75 C71.54822, 218.75 68.75, 221.5482 68.75, 225 C68.75, 228.4518 71.54822, 231.25 75, 231.25 C168.1981, 231.25 243.75, 306.8019 243.75, 400 C243.75, 493.1981 168.1981, 568.75 75, 568.75 C71.54822, 568.75 68.75, 571.5482 68.75, 575 C68.75, 578.4518 71.54822, 581.25 75, 581.25z" />
<glyph horiz-adv-x="1000" glyph-name="ruX" unicode="&#x0425;" d="M150, 756.25 C322.1575, 756.25 465.7933, 634.1339 499.0123, 471.7968 L500, 466.2658 L500.9877, 471.7968 C534.2067, 634.1339 677.8425, 756.25 850, 756.25 C853.4518, 756.25 856.25, 753.4518 856.25, 750 C856.25, 746.5482 853.4518, 743.75 850, 743.75 C660.1521, 743.75 506.25, 589.8479 506.25, 400 C506.25, 210.1521 660.1521, 56.25 850, 56.25 C853.4518, 56.25 856.25, 53.45178 856.25, 50 C856.25, 46.54822 853.4518, 43.75 850, 43.75 C677.8425, 43.75 534.2067, 165.8661 500.9877, 328.2032 L500, 333.7342 L499.0123, 328.2032 C465.7933, 165.8661 322.1575, 43.75 150, 43.75 C146.5482, 43.75 143.75, 46.54822 143.75, 50 C143.75, 53.45178 146.5482, 56.25 150, 56.25 C339.8479, 56.25 493.75, 210.1521 493.75, 400 C493.75, 589.8479 339.8479, 743.75 150, 743.75 C146.5482, 743.75 143.75, 746.5482 143.75, 750 C143.75, 753.4518 146.5482, 756.25 150, 756.25z" />
<glyph unicode="&#x0444;" d="M256.25, 481.0922 L256.25, 318.9078 L267.2537, 319.1856 C349.5105, 323.3624 414.3024, 357.0781 418.5304, 398.7831 L418.597, 400.1006 L418.5569, 400.9472 C414.5815, 442.7765 349.6878, 476.6286 267.2537, 480.8144 L256.25, 481.0922zM243.75, 481.0922 L232.7463, 480.8144 C150.3122, 476.6286 85.41844, 442.7765 81.44308, 400.9472 L81.40295, 400.1006 L81.46957, 398.7831 C85.69764, 357.0781 150.4895, 323.3624 232.7463, 319.1856 L243.75, 318.9078 L243.75, 481.0922zM250, 581.25 C253.4518, 581.25 256.25, 578.4518 256.25, 575 L256.25, 493.5868 L268.5318, 493.266 C359.9282, 488.4651 431.25, 448.5406 431.25, 400 C431.25, 351.4594 359.9282, 311.535 268.5318, 306.734 L256.25, 306.4133 L256.25, 225 C256.25, 221.5482 253.4518, 218.75 250, 218.75 C246.5482, 218.75 243.75, 221.5482 243.75, 225 L243.75, 306.4133 L231.4682, 306.734 C140.0718, 311.535 68.75, 351.4594 68.75, 400 C68.75, 448.5406 140.0718, 488.4651 231.4682, 493.266 L243.75, 493.5868 L243.75, 575 C243.75, 578.4518 246.5482, 581.25 250, 581.25z" />
<glyph horiz-adv-x="1000" glyph-name="ruF" unicode="&#x0424;" d="M506.25, 568.671 L506.25, 231.329 L517.6893, 231.4736 C693.4575, 235.9285 834.393, 306.3962 843.3027, 394.2803 L843.5945, 400.0495 L843.3301, 405.445 C834.6866, 493.4569 693.6406, 564.0669 517.6893, 568.5264 L506.25, 568.671zM493.75, 568.671 L482.3107, 568.5264 C306.3594, 564.0669 165.3134, 493.4569 156.6699, 405.445 L156.4055, 400.0495 L156.6973, 394.2803 C165.607, 306.3962 306.5425, 235.9285 482.3107, 231.4736 L493.75, 231.329 L493.75, 568.671zM500, 756.25 C503.4518, 756.25 506.25, 753.4518 506.25, 750 L506.25, 581.1696 L518.3326, 581.0142 C706.5644, 576.1597 856.25, 496.9734 856.25, 400 C856.25, 303.0266 706.5644, 223.8403 518.3326, 218.9858 L506.25, 218.8304 L506.25, 50 C506.25, 46.54822 503.4518, 43.75 500, 43.75 C496.5482, 43.75 493.75, 46.54822 493.75, 50 L493.75, 218.8304 L481.6674, 218.9858 C293.4357, 223.8403 143.75, 303.0266 143.75, 400 C143.75, 496.9734 293.4357, 576.1597 481.6674, 581.0142 L493.75, 581.1696 L493.75, 750 C493.75, 753.4518 496.5482, 756.25 500, 756.25z" />
<glyph unicode="&#x0443;" d="M425, 581.25 C428.4518, 581.25 431.25, 578.4518 431.25, 575 C431.25, 378.2485 310.9265, 218.75 162.5, 218.75 C159.0482, 218.75 156.25, 221.5482 156.25, 225 C156.25, 228.4518 159.0482, 231.25 162.5, 231.25 C304.023, 231.25 418.75, 385.1521 418.75, 575 C418.75, 578.4518 421.5482, 581.25 425, 581.25zM75, 581.25 C78.45178, 581.25 81.25, 578.4518 81.25, 575 C81.25, 481.8019 195.977, 406.25 337.5, 406.25 C340.9518, 406.25 343.75, 403.4518 343.75, 400 C343.75, 396.5482 340.9518, 393.75 337.5, 393.75 C189.0735, 393.75 68.75, 474.8984 68.75, 575 C68.75, 578.4518 71.54822, 581.25 75, 581.25z" />
<glyph horiz-adv-x="1000" glyph-name="ruU" unicode="&#x0423;" d="M850, 756.25 C853.4518, 756.25 856.25, 753.4518 856.25, 750 C856.25, 359.9489 618.4012, 43.75 325, 43.75 C321.5482, 43.75 318.75, 46.54822 318.75, 50 C318.75, 53.45178 321.5482, 56.25 325, 56.25 C611.4977, 56.25 843.75, 366.8525 843.75, 750 C843.75, 753.4518 846.5482, 756.25 850, 756.25zM150, 756.25 C153.4518, 756.25 156.25, 753.4518 156.25, 750 C156.25, 560.1521 388.5023, 406.25 675, 406.25 C678.4518, 406.25 681.25, 403.4518 681.25, 400 C681.25, 396.5482 678.4518, 393.75 675, 393.75 C381.5987, 393.75 143.75, 553.2485 143.75, 750 C143.75, 753.4518 146.5482, 756.25 150, 756.25z" />
<glyph unicode="&#x0442;" d="M75, 581.25 C156.3326, 581.25 225.153, 553.5411 248.1014, 515.3784 L250, 511.92 L251.8986, 515.3784 C274.847, 553.5411 343.6674, 581.25 425, 581.25 C428.4518, 581.25 431.25, 578.4518 431.25, 575 C431.25, 571.5482 428.4518, 568.75 425, 568.75 C331.8019, 568.75 256.25, 530.974 256.25, 484.375 L256.25, 225 C256.25, 221.5482 253.4518, 218.75 250, 218.75 C246.5482, 218.75 243.75, 221.5482 243.75, 225 L243.75, 484.375 C243.75, 530.974 168.1981, 568.75 75, 568.75 C71.54822, 568.75 68.75, 571.5482 68.75, 575 C68.75, 578.4518 71.54822, 581.25 75, 581.25z" />
<glyph horiz-adv-x="1000" glyph-name="ruT" unicode="&#x0422;" d="M150, 756.25 C322.1575, 756.25 465.7933, 694.1207 499.0123, 611.5282 L500, 608.7142 L500.9877, 611.5282 C534.2067, 694.1207 677.8425, 756.25 850, 756.25 C853.4518, 756.25 856.25, 753.4518 856.25, 750 C856.25, 746.5482 853.4518, 743.75 850, 743.75 C660.1521, 743.75 506.25, 666.799 506.25, 571.875 L506.25, 50 C506.25, 46.54822 503.4518, 43.75 500, 43.75 C496.5482, 43.75 493.75, 46.54822 493.75, 50 L493.75, 571.875 C493.75, 666.799 339.8479, 743.75 150, 743.75 C146.5482, 743.75 143.75, 746.5482 143.75, 750 C143.75, 753.4518 146.5482, 756.25 150, 756.25z" />
<glyph unicode="&#x0441;" d="M337.5, 581.25 C389.2767, 581.25 431.25, 539.2767 431.25, 487.5 C431.25, 484.0482 428.4518, 481.25 425, 481.25 C421.5482, 481.25 418.75, 484.0482 418.75, 487.5 C418.75, 532.3732 382.3731, 568.75 337.5, 568.75 C200.3996, 568.75 88.44661, 461.0814 81.58344, 325.6866 L81.30268, 314.5833 L81.46957, 311.2831 C85.98923, 266.7019 159.7144, 231.25 250, 231.25 C343.1981, 231.25 418.75, 267.6269 418.75, 312.5 C418.75, 315.9518 421.5482, 318.75 425, 318.75 C428.4518, 318.75 431.25, 315.9518 431.25, 312.5 C431.25, 260.7233 350.1016, 218.75 250, 218.75 C149.8984, 218.75 68.75, 260.7233 68.75, 312.5 C68.75, 460.9265 189.0735, 581.25 337.5, 581.25z" />
<glyph horiz-adv-x="1000" glyph-name="ruS" unicode="&#x0421;" d="M675, 756.25 C775.1016, 756.25 856.25, 675.1016 856.25, 575 C856.25, 571.5482 853.4518, 568.75 850, 568.75 C846.5482, 568.75 843.75, 571.5482 843.75, 575 C843.75, 668.1981 768.1981, 743.75 675, 743.75 C397.4554, 743.75 170.8187, 525.7867 156.925, 251.6948 L156.3027, 227.0833 L156.6973, 219.2803 C165.904, 128.4667 316.0849, 56.25 500, 56.25 C689.8479, 56.25 843.75, 131.8019 843.75, 225 C843.75, 228.4518 846.5482, 231.25 850, 231.25 C853.4518, 231.25 856.25, 228.4518 856.25, 225 C856.25, 124.8984 696.7515, 43.75 500, 43.75 C303.2486, 43.75 143.75, 124.8984 143.75, 225 C143.75, 518.4012 381.5987, 756.25 675, 756.25z" />
<glyph unicode="&#x0440;" d="M162.5, 581.25 C310.9265, 581.25 431.25, 539.2767 431.25, 487.5 C431.25, 435.7233 310.9265, 393.75 162.5, 393.75 C159.0482, 393.75 156.25, 396.5482 156.25, 400 C156.25, 403.4518 159.0482, 406.25 162.5, 406.25 C299.6004, 406.25 411.5534, 441.2642 418.4166, 485.295 L418.588, 487.5 L418.4166, 489.705 C411.5534, 533.7358 299.6004, 568.75 162.5, 568.75 C117.6269, 568.75 81.25, 532.3732 81.25, 487.5 L81.25, 225 C81.25, 221.5482 78.45178, 218.75 75, 218.75 C71.54822, 218.75 68.75, 221.5482 68.75, 225 L68.75, 487.5 C68.75, 539.2767 110.7233, 581.25 162.5, 581.25z" />
<glyph horiz-adv-x="1000" glyph-name="ruR" unicode="&#x0420;" d="M325, 756.25 C618.4012, 756.25 856.25, 675.1016 856.25, 575 C856.25, 474.8984 618.4012, 393.75 325, 393.75 C321.5482, 393.75 318.75, 396.5482 318.75, 400 C318.75, 403.4518 321.5482, 406.25 325, 406.25 C602.5447, 406.25 829.1813, 478.0291 843.075, 568.2922 L843.59, 575 L843.075, 581.7077 C829.1813, 671.9709 602.5447, 743.75 325, 743.75 C231.8019, 743.75 156.25, 668.1981 156.25, 575 L156.25, 50 C156.25, 46.54822 153.4518, 43.75 150, 43.75 C146.5482, 43.75 143.75, 46.54822 143.75, 50 L143.75, 575 C143.75, 675.1016 224.8984, 756.25 325, 756.25z" />
<glyph unicode="&#x043F;" d="M250, 581.25 C350.1016, 581.25 431.25, 539.2767 431.25, 487.5 L431.25, 225 C431.25, 221.5482 428.4518, 218.75 425, 218.75 C421.5482, 218.75 418.75, 221.5482 418.75, 225 L418.75, 484.375 C418.75, 530.974 343.1981, 568.75 250, 568.75 C156.8019, 568.75 81.25, 530.974 81.25, 484.375 L81.25, 225 C81.25, 221.5482 78.45178, 218.75 75, 218.75 C71.54822, 218.75 68.75, 221.5482 68.75, 225 L68.75, 487.5 C68.75, 539.2767 149.8984, 581.25 250, 581.25z" />
<glyph horiz-adv-x="1000" glyph-name="ruP" unicode="&#x041F;" d="M500, 756.25 C696.7515, 756.25 856.25, 675.1016 856.25, 575 L856.25, 50 C856.25, 46.54822 853.4518, 43.75 850, 43.75 C846.5482, 43.75 843.75, 46.54822 843.75, 50 L843.75, 571.875 C843.75, 666.799 689.8479, 743.75 500, 743.75 C310.1521, 743.75 156.25, 666.799 156.25, 571.875 L156.25, 50 C156.25, 46.54822 153.4518, 43.75 150, 43.75 C146.5482, 43.75 143.75, 46.54822 143.75, 50 L143.75, 575 C143.75, 675.1016 303.2486, 756.25 500, 756.25z" />
<glyph unicode="&#x043E;" d="M250, 568.75 C156.8019, 568.75 81.25, 530.974 81.25, 484.375 L81.25, 400 C81.25, 306.8019 156.8019, 231.25 250, 231.25 C343.1981, 231.25 418.75, 306.8019 418.75, 400 L418.75, 484.375 C418.75, 530.974 343.1981, 568.75 250, 568.75zM250, 581.25 C350.1016, 581.25 431.25, 539.2767 431.25, 487.5 L431.25, 400 C431.25, 299.8984 350.1016, 218.75 250, 218.75 C149.8984, 218.75 68.75, 299.8984 68.75, 400 L68.75, 487.5 C68.75, 539.2767 149.8984, 581.25 250, 581.25z" />
<glyph horiz-adv-x="1000" glyph-name="ruO" unicode="&#x041E;" d="M500, 743.75 C310.1521, 743.75 156.25, 666.799 156.25, 571.875 L156.25, 400 C156.25, 210.1521 310.1521, 56.25 500, 56.25 C689.8479, 56.25 843.75, 210.1521 843.75, 400 L843.75, 571.875 C843.75, 666.799 689.8479, 743.75 500, 743.75zM500, 756.25 C696.7515, 756.25 856.25, 675.1016 856.25, 575 L856.25, 400 C856.25, 203.2485 696.7515, 43.75 500, 43.75 C303.2486, 43.75 143.75, 203.2485 143.75, 400 L143.75, 575 C143.75, 675.1016 303.2486, 756.25 500, 756.25z" />
<glyph unicode="&#x043D;" d="M75, 581.25 C78.45178, 581.25 81.25, 578.4518 81.25, 575 L81.25, 406.25 L418.75, 406.25 L418.75, 575 C418.75, 578.4518 421.5482, 581.25 425, 581.25 C428.4518, 581.25 431.25, 578.4518 431.25, 575 L431.25, 225 C431.25, 221.5482 428.4518, 218.75 425, 218.75 C421.5482, 218.75 418.75, 221.5482 418.75, 225 L418.75, 393.75 L81.25, 393.75 L81.25, 225 C81.25, 221.5482 78.45178, 218.75 75, 218.75 C71.54822, 218.75 68.75, 221.5482 68.75, 225 L68.75, 575 C68.75, 578.4518 71.54822, 581.25 75, 581.25z" />
<glyph horiz-adv-x="1000" glyph-name="ruN" unicode="&#x041D;" d="M150, 756.25 C153.4518, 756.25 156.25, 753.4518 156.25, 750 L156.25, 406.25 L843.75, 406.25 L843.75, 750 C843.75, 753.4518 846.5482, 756.25 850, 756.25 C853.4518, 756.25 856.25, 753.4518 856.25, 750 L856.25, 50 C856.25, 46.54822 853.4518, 43.75 850, 43.75 C846.5482, 43.75 843.75, 46.54822 843.75, 50 L843.75, 393.75 L156.25, 393.75 L156.25, 50 C156.25, 46.54822 153.4518, 43.75 150, 43.75 C146.5482, 43.75 143.75, 46.54822 143.75, 50 L143.75, 750 C143.75, 753.4518 146.5482, 756.25 150, 756.25z" />
<glyph unicode="&#x043C;" d="M75, 581.25 C156.3326, 581.25 225.153, 501.8177 248.1014, 392.418 L250, 382.5042 L251.8986, 392.418 C274.847, 501.8177 343.6674, 581.25 425, 581.25 C428.4518, 581.25 431.25, 578.4518 431.25, 575 L431.25, 225 C431.25, 221.5482 428.4518, 218.75 425, 218.75 C421.5482, 218.75 418.75, 221.5482 418.75, 225 L418.75, 568.2455 L411.4869, 567.427 C324.2927, 554.3044 256.25, 445.1778 256.25, 312.5 C256.25, 309.0482 253.4518, 306.25 250, 306.25 C246.5482, 306.25 243.75, 309.0482 243.75, 312.5 C243.75, 445.1778 175.7073, 554.3044 88.51306, 567.427 L81.25, 568.2455 L81.25, 225 C81.25, 221.5482 78.45178, 218.75 75, 218.75 C71.54822, 218.75 68.75, 221.5482 68.75, 225 L68.75, 575 C68.75, 578.4518 71.54822, 581.25 75, 581.25z" />
<glyph horiz-adv-x="1000" glyph-name="ruM" unicode="&#x041C;" d="M150, 756.25 C322.1575, 756.25 465.7933, 574.1471 499.0123, 332.0654 L500, 323.8174 L500.9877, 332.0654 C534.2067, 574.1471 677.8425, 756.25 850, 756.25 C853.4518, 756.25 856.25, 753.4518 856.25, 750 L856.25, 50 C856.25, 46.54822 853.4518, 43.75 850, 43.75 C846.5482, 43.75 843.75, 46.54822 843.75, 50 L843.75, 743.3573 L836.2629, 743.075 C652.4342, 729.1813 506.25, 502.5446 506.25, 225 C506.25, 221.5482 503.4518, 218.75 500, 218.75 C496.5482, 218.75 493.75, 221.5482 493.75, 225 C493.75, 502.5446 347.5657, 729.1813 163.7371, 743.075 L156.25, 743.3573 L156.25, 50 C156.25, 46.54822 153.4518, 43.75 150, 43.75 C146.5482, 43.75 143.75, 46.54822 143.75, 50 L143.75, 750 C143.75, 753.4518 146.5482, 756.25 150, 756.25z" />
<glyph unicode="&#x043B;" d="M250, 581.25 C253.4518, 581.25 256.25, 578.4518 256.25, 575 C256.25, 385.1521 331.8019, 231.25 425, 231.25 C428.4518, 231.25 431.25, 228.4518 431.25, 225 C431.25, 221.5482 428.4518, 218.75 425, 218.75 C343.6674, 218.75 274.847, 324.0439 251.8986, 469.0621 L250, 482.2038 L248.1014, 469.0621 C225.153, 324.0439 156.3326, 218.75 75, 218.75 C71.54822, 218.75 68.75, 221.5482 68.75, 225 C68.75, 228.4518 71.54822, 231.25 75, 231.25 C168.1981, 231.25 243.75, 385.1521 243.75, 575 C243.75, 578.4518 246.5482, 581.25 250, 581.25z" />
<glyph horiz-adv-x="1000" glyph-name="ruL" unicode="&#x041B;" d="M500, 756.25 C503.4518, 756.25 506.25, 753.4518 506.25, 750 C506.25, 366.8525 660.1521, 56.25 850, 56.25 C853.4518, 56.25 856.25, 53.45178 856.25, 50 C856.25, 46.54822 853.4518, 43.75 850, 43.75 C677.8425, 43.75 534.2067, 285.8398 500.9877, 607.666 L500, 618.631 L499.0123, 607.666 C465.7933, 285.8398 322.1575, 43.75 150, 43.75 C146.5482, 43.75 143.75, 46.54822 143.75, 50 C143.75, 53.45178 146.5482, 56.25 150, 56.25 C339.8479, 56.25 493.75, 366.8525 493.75, 750 C493.75, 753.4518 496.5482, 756.25 500, 756.25z" />
<glyph unicode="&#x043A;" d="M75, 581.25 C78.45178, 581.25 81.25, 578.4518 81.25, 575 L81.25, 406.3276 L92.68933, 406.4696 C274.3165, 410.9892 418.75, 484.7144 418.75, 575 C418.75, 578.4518 421.5482, 581.25 425, 581.25 C428.4518, 581.25 431.25, 578.4518 431.25, 575 C431.25, 493.1786 324.6867, 424.0202 178.319, 401.4899 L167.7612, 400.0051 L180.9379, 398.1013 C325.956, 375.153 431.25, 306.3326 431.25, 225 C431.25, 221.5482 428.4518, 218.75 425, 218.75 C421.5482, 218.75 418.75, 221.5482 418.75, 225 C418.75, 315.2856 274.3165, 389.0108 92.68933, 393.5304 L81.25, 393.6724 L81.25, 225 C81.25, 221.5482 78.45178, 218.75 75, 218.75 C71.54822, 218.75 68.75, 221.5482 68.75, 225 L68.75, 575 C68.75, 578.4518 71.54822, 581.25 75, 581.25z" />
<glyph horiz-adv-x="1000" glyph-name="ruK" unicode="&#x041A;" d="M150, 756.25 C153.4518, 756.25 156.25, 753.4518 156.25, 750 L156.25, 406.3283 L185.7003, 406.6973 C552.2568, 415.904 843.75, 566.0848 843.75, 750 C843.75, 753.4518 846.5482, 756.25 850, 756.25 C853.4518, 756.25 856.25, 753.4518 856.25, 750 C856.25, 577.2661 612.5364, 433.2452 289.0987, 400.6578 L281.4967, 399.9885 L292.334, 399.0123 C614.1602, 365.7933 856.25, 222.1575 856.25, 50 C856.25, 46.54822 853.4518, 43.75 850, 43.75 C846.5482, 43.75 843.75, 46.54822 843.75, 50 C843.75, 233.9152 552.2568, 384.096 185.7003, 393.3027 L156.25, 393.6717 L156.25, 50 C156.25, 46.54822 153.4518, 43.75 150, 43.75 C146.5482, 43.75 143.75, 46.54822 143.75, 50 L143.75, 750 C143.75, 753.4518 146.5482, 756.25 150, 756.25z" />
</font>
</defs>
</svg>
